Vaper club

e-cigarete forum
Zadnji put si ovdje bio: 21 ožu 2019 04:22. Sada je: 21 ožu 2019 04:22.

Vremenska zona: UTC + 01:00 [LJV]




 [ 221 post(ov)a ]  Stranica Prethodna  1 ... 18, 19, 20, 21, 22, 23  Sljedeća
Autor Poruka
 Naslov: Re: Sinkro crtići
PostPostano: 14 pro 2018 18:46 
Offline

Pridružen: 15 lis 2018 16:56
Postovi: 13
Ok :) Hvala!


Povratak na vrh
  
 
 Naslov: Re: Sinkro crtići
PostPostano: 15 pro 2018 02:04 
Offline

Pridružen: 15 lis 2018 16:56
Postovi: 13
padobranac je napisao:
Ma ionak je bedasto od mene kaj tražim hd.

A jel imaš možda samo audio koji odgovara 23,976 pa da ga zakeljim na bilo koji 1080p s isto fpsa?

Di uopće nalaziš sve te hr syncove?

Ti si svjestan da si možda jedini na netu koji raspolaže s toliko hr sync crtića?

Zaslužuješ neku donaciju ili da te se počasti s klopom i pivom :)


Totalno se slažem :)


Povratak na vrh
  
 
 Naslov: Re: Sinkro crtići
PostPostano: 15 pro 2018 02:10 
Offline

Pridružen: 15 lis 2018 16:56
Postovi: 13
:dobar:
padobranac je napisao:
Stari, ne znam više kako da ti zahvalim


Povratak na vrh
  
 
 Naslov: Re: Sinkro crtići
PostPostano: 15 pro 2018 02:33 
Offline

Pridružen: 15 lis 2018 16:56
Postovi: 13
Stvarno ne mogu naći crtić Inside Out ... Glupo je od mene uopće tražiti jer je stvarno ovo rudnik, ali ako ćete imati unuke stvarno je odličan crtić. :) A i igrica za mobitel :)


Povratak na vrh
  
 
 Naslov: Re: Sinkro crtići
PostPostano: 15 pro 2018 02:41 
Offline

Pridružen: 15 lis 2018 16:56
Postovi: 13
Kad sam već načela o igricama, ima li možda neka igrica za laptop? Ili netko ima samo neki prijedlog gdje je mogu skinuti, a da nije teško za instalirati?

Mali mi ima 4,5 god i našla sam mu Hot Wheels : Beat That i odlična mi je ... Auti se utrkuju po spavaćoj sobi, tavanu, dvorani za kuglanje i terenu za mini golf.

Onda druge Hot Wheels nisam uspjela instalirati...


Povratak na vrh
  
 
 Naslov: Re: Sinkro crtići
PostPostano: 15 pro 2018 10:35 
Offline
Avatar

Pridružen: 04 ožu 2015 14:28
Postovi: 622
Lokacija: ZG
Nisam ga stavil. Moram ga pronaći pa stavim.

Inače sve skupa imam 850Gb sync crtića. Sve zbog toga što je kćer teta u vrtiću i čekam unuke...

_________________
"The camera is an instrument that teaches people how to see without a camera" - Dorothea Lang
slika


Povratak na vrh
  
 
 Naslov: Re: Sinkro crtići
PostPostano: 15 pro 2018 13:00 
Offline
Avatar

Pridružen: 04 ožu 2015 14:28
Postovi: 622
Lokacija: ZG
slika

General
Complete name : Inside.Out.2015.720p.BluRay.x264-SPARKS.mkv
Format : Matroska
File size : 2.65 GiB
Duration : 1h 34mn
Overall bit rate : 4 002 Kbps

Video
Format : AVC
Bit rate : 2 491 Kbps
Width : 1 280 pixels
Height : 720 pixels
Frame rate : 23.976 fps
Stream size : 1.60 GiB (60%)

Audio
Format : DTS
Bit rate : 1 509 Kbps
Channel(s) : 6 channels
Stream size : 1 021 MiB (38%)

Kod:
https://mega.nz/#!91ZiUQqY!vm9HtsXu6oI27JG3GhoFuvmBp6XwTxESu8FyPgpSWsg

_________________
"The camera is an instrument that teaches people how to see without a camera" - Dorothea Lang
slika


Povratak na vrh
  
 
 Naslov: Re: Sinkro crtići
PostPostano: 16 pro 2018 22:55 
Offline

Pridružen: 15 lis 2018 16:56
Postovi: 13
HVALA PUNO PUNO PUNO !!! :)

Stvarno ste odlični što dijelite s nama ostalima sin. crtiće!

Želim Vam jako puno lijepih druženja s unucima!


Povratak na vrh
  
 
 Naslov: Re: Sinkro crtići
PostPostano: 24 pro 2018 02:56 
Offline

Pridružen: 15 lis 2018 16:56
Postovi: 13
Oprostite na gnjavaži, ali što da radim ako nema zvuka? Na laptopu mi se nikakva poruka ne pokaže,a na TV-u, kad prebacim crtić na stik pa stavim u TV, mi pokaže da zvuk nije podržan. To je u vezi Inside Out crtića. Stvarno mi je bed što Vas gnjavim,opet, a i mali ga je tako pogledao:) Sam mi je bio rekao nema veze, mogu i bez zvuka pogledati.. No, možda to mogu nekako lako sredit?


Povratak na vrh
  
 
 Naslov: Re: Sinkro crtići
PostPostano: 24 pro 2018 03:20 
Offline

Pridružen: 15 lis 2018 16:56
Postovi: 13
Tražim po netu neke dječje pjesmice za skinuti, božićne, ali i ovako obične, imate li Vi možda? Jedino preko youtube-a sam uspjela neke..

I hvala puno još jednom za sve...


Povratak na vrh
  
 
 [ 221 post(ov)a ]  Stranica Prethodna  1 ... 18, 19, 20, 21, 22, 23  Sljedeća

Vremenska zona: UTC + 01:00 [LJV]


Online

Trenutno korisnika: / i 0 gostiju.


Ne možeš započinjati nove teme.
Ne možeš odgovarati na postove.
Ne možeš uređivati svoje postove.
Ne možeš izbrisati svoje postove.
Ne možeš postati privitke.

Idi na:  
Powered by phpBB © 2000, 2002, 2005, 2007 phpBB Group
HR (CRO) by vaper club