Vaper club

e-cigarete forum
Zadnji put si ovdje bio: 18 lis 2018 21:17. Sada je: 18 lis 2018 21:17.

Vremenska zona: UTC + 01:00 [LJV]




 [ 195 post(ov)a ]  Stranica Prethodna  1 ... 16, 17, 18, 19, 20  Sljedeća
Autor Poruka
 Naslov: Re: Sinkro crtići
PostPostano: 07 srp 2018 12:50 
Offline
Avatar

Pridružen: 04 ožu 2015 14:28
Postovi: 595
Lokacija: ZG
slika

Ime datoteke : Home-Kod.kuce.2015.HRSINK.BRrip.XviD-Gede.avi
Veličina datoteke : 700 Mb.

[Film]
Ispravan : Da [AVI]
Trajanje : 01:33:48
Potpun film : Da

[Video]
Rezolucija : 720x384
Kodek : XviD MPEG-4 codec
FPS : 23,98
Bitrate : 915 Kbps
Faktor kvalitete : 0,14 b/px

[Audio]
Kodek : ATSC/A-52 Dolby AC3
Broj kanala : 2
Sample rate : 48000 Hz
Bitrate : 128 Kbps


Kod:
https://mega.nz/#!dQ5WyA5K!l78BbdFljf7w5GekZnlPC4CkOyjHahIXg7lr8Ertij8

_________________
"The camera is an instrument that teaches people how to see without a camera" - Dorothea Lang
slika


Povratak na vrh
  
 
 Naslov: Re: Sinkro crtići
PostPostano: 08 srp 2018 20:16 
Offline
Avatar

Pridružen: 04 ožu 2015 14:28
Postovi: 595
Lokacija: ZG
slika

General
Complete name : Maya.The.Bee.The.Honey.Games.2018.720p.BluRay.x264-ROVERS.mkv
Format : Matroska
File size : 2.65 GiB
Duration : 1 h 24 min
Overall bit rate : 4 468 kb/s

Video
Format : AVC
Bit rate : 2 955 kb/s
Width : 1 280 pixels
Height : 696 pixels
Frame rate : 23.976 FPS
Stream size : 1.75 GiB (66%)

Audio
Format : DTS
Bit rate : 1 510 kb/s
Channel(s) : 6 channels
Stream size : 916 MiB (34%)

Kod:
https://mega.nz/#!oIIyVC5D!AUBv6d1n3h8SvJmW3QG57odTRWc1xMpHrGTVkdLqtNY

_________________
"The camera is an instrument that teaches people how to see without a camera" - Dorothea Lang
slika


Povratak na vrh
  
 
 Naslov: Re: Sinkro crtići
PostPostano: 22 srp 2018 21:25 
Offline

Pridružen: 24 stu 2015 12:38
Postovi: 12
Lokacija: Zabreg
Joj joj joj joj joj joj joj joj joj joj joj joj joj joj joj joj joj joj joj joj joj joj joj.

Fala lepo na medenim igrama.

Živio :plus:


Povratak na vrh
  
 
 Naslov: Re: Sinkro crtići
PostPostano: 22 srp 2018 21:30 
Offline

Pridružen: 24 stu 2015 12:38
Postovi: 12
Lokacija: Zabreg
Ma fala ti kaj si tako bezobrazno nesebičan pa s nama dijeliš sve te gige animirane ljepote :hug:


Povratak na vrh
  
 
 Naslov: Re: Sinkro crtići
PostPostano: 26 srp 2018 20:30 
Offline
Avatar

Pridružen: 04 ožu 2015 14:28
Postovi: 595
Lokacija: ZG
slika

Animirano - igrani film Petar Zecimir priča nikad prije ispričanu priču o Petru Zecimiru koja počinje
tako što Petar i njegova cijela obitelj preuzmu farmu starog gospodina Gregorca te ju počnu uništavati
bacajući voće i povrće na sve strane i praveći nered. Kada na farmu po svoje nasljedstvo dođe mlađi
gospodin Tomica Gregorec, koji je daleko bistriji i oštroumniji, za Petra to znači samo dodatni izazov,
nikako prestanak zabave. No, mladi Gregorec nije samo nevjerojatan neprijatelj, već i potencijalni
suparnik. On se naime zaljubljuje u lokalnu slikaricu Bibu koja je ujedno i zekova surogat majka. Sada
Petar ima dvostruko više razloga za otjerati uljeza što na koncu rezultira pravom bitkom, kako za farmu,
tako i za naklonost lijepe Bibe. Rivalstvo Petra Zecimira i mladog Tomice odvest će ih u veliku avanturu
daleko izvan njihove idilične jezerske četvrti ravno u prometnu londonsku podzemnu željeznicu pa sve
do opasnih ulica grada i natrag. Ali na kraju, Petar mora shvatiti da mrkva i slava nikada neće biti
važni koliko ljubav i obitelj.

Animirano-igrani film Petar Zecimir snimljen je prema istoimenoj seriji knjiga poznate engleske spisateljice
Beatrix Potter. Knjige su postigle nevjerojatno veliki uspjeh i do danas su prevedene na 36 jezika
te su, s preko 45 milijuna prodanih primjeraka, jedne od najprodavanijih knjiga svih vremena.

--------------------------------------------------------------------------------------------------
Rip Info:
--------------------------------------------------------------------------------------------------
zanr..............: dječji, animirani
velicina..........: 912 MB
video.............: MPEG-4@~ 1239 Kbps
audio.............: MP3@~160 Kbps
reza..............: 704 x 400 @ 25.000 fps
trajanje..........: 1h 30mn
format............: XviD
jezik.............: hrvatski
titlovi...........: /
source............: DVB
--------------------------------------------------------------------------------------------------


Kod:
https://mega.nz/#!oNRDGKZJ!2MaIG68JXR1XEzJz6xggeamz3g9SFiK_VktgNwtnjWs

_________________
"The camera is an instrument that teaches people how to see without a camera" - Dorothea Lang
slika


Povratak na vrh
  
 
 Naslov: Re: Sinkro crtići
PostPostano: 10 kol 2018 21:59 
Offline
Avatar

Pridružen: 04 ožu 2015 14:28
Postovi: 595
Lokacija: ZG
slika

--------------------------------------------------------------------------------------------------
Rip Info:
--------------------------------------------------------------------------------------------------
zanr..............: animirani
kanal.............: RTL Kockica, 2018.
broj epizoda......: 53
velicina..........: ~195 MB /ep
video.............: MPEG-4@~ 1200 Kbps
audio.............: MP3@~128 Kbps
reza..............: 704 x 528 @ 25.000 fps
trajanje..........: ~20mn /ep
format............: XviD
jezik.............: hrvatski
titlovi...........: /
source............: DVB
--------------------------------------------------------------------------------------------------

5x2Gb multivolume zip

Kod:
https://mega.nz/#!RYISVaBQ!Bk4w6v4Ni9i__OxRNDtVHaTzk3Jmb4Tty2KBtBy6tMk

Kod:
https://mega.nz/#!scBAnYpB!KB1XycQfiIjZLggQ8Lov7H2-4alV3lLtLHG-61fmlig

Kod:
https://mega.nz/#!0FBQ0QKK!PV5o_B7PPYAB7Og0BAZ9zXq-Sf_Hmb4Q0usoqN-z_Jk

Kod:
https://mega.nz/#!NFRiDSyY!vptou6MZJJDmTDKzKLT9jOKNCeM2dLtlNNZGS2q5d7o

Kod:
https://mega.nz/#!UAJG1ShL!ERV5Epzk8z0B-Bkm7ytuMylCBAxHzn6tOqPjXLGTTbc

_________________
"The camera is an instrument that teaches people how to see without a camera" - Dorothea Lang
slika


Povratak na vrh
  
 
 Naslov: Re: Sinkro crtići
PostPostano: 10 kol 2018 22:23 
Offline
Avatar

Pridružen: 04 ožu 2015 14:28
Postovi: 595
Lokacija: ZG
slika

General
Complete name : A.Storks.Journey.2017.720p.BluRay.x264-CONDITION.mkv
Format : Matroska
File size : 2.65 GiB
Duration : 1 h 24 min
Overall bit rate : 4 491 kb/s

Video
Format : AVC
Bit rate : 2 980 kb/s
Width : 1 280 pixels
Height : 688 pixels
Frame rate : 23.976 (24000/1001) FPS
Stream size : 1.76 GiB (66%)

Audio
Format : DTS
Bit rate : 1 509 kb/s
Channel(s) : 6 channels
Stream size : 911 MiB (34%)

Kod:
https://mega.nz/#!xNglRaLL!kZBm-TBkh4TZAGqQ8hXkaipuJGTTTyTO3KNW99qvO04

_________________
"The camera is an instrument that teaches people how to see without a camera" - Dorothea Lang
slika


Povratak na vrh
  
 
 Naslov: Re: Sinkro crtići
PostPostano: 15 kol 2018 20:53 
Offline
Avatar

Pridružen: 04 ožu 2015 14:28
Postovi: 595
Lokacija: ZG
slika


--------------------------------------------------------------------------------------------------
Rip Info:
--------------------------------------------------------------------------------------------------
zanr..............: animirani
velicina..........: 878 MB
video.............: MPEG-4@~ 1240 Kbps
audio.............: MP3@~160 Kbps
reza..............: 704 x 400 @ 25.000 fps
trajanje..........: 1h 27mn
format............: XviD
jezik.............: hrvatski
titlovi...........: /
source............: DVB


Kod:
https://mega.nz/#!sRhkTKDA!EBfBslwFNJigNBHLOC0j2JXaA12NfeTWz99NG0pG7DM

.

_________________
"The camera is an instrument that teaches people how to see without a camera" - Dorothea Lang
slika


Povratak na vrh
  
 
 Naslov: Re: Sinkro crtići
PostPostano: 21 ruj 2018 21:44 
Offline
Avatar

Pridružen: 04 ožu 2015 14:28
Postovi: 595
Lokacija: ZG
slika

Trajanje: 83 minuta
Žanr: Pustolovni film,Komedija,Animacija
Redatelji: Inna Evlannikova, Martin Kotík
Producent: Martin Kotík
Scenarij: Miloš Kirschner, Jesper Möller, Petr Nepovím, Dan Harder

Krenite u avanturu s Lukom i njegovom ekipom u zaboravljene magične muzeje.
Luka je pametan, ali previše živahan dječak s jednom ambicijom: završiti posljednju razinu svoje računalne igre. Jednom kad završi u gejmerskom Hall of Fame-u, njegov odsutan otac gospodin Spejbl će se napokon ponositi njime. Međutim, završetak igrice će biti tek početak velike avanture koja će odvesti Luku, njegovog psa Džekija i prijateljicu Moniku u davno zaboravljeni muzej lutaka, gdje će Hrvoje vratiti u živ...

ULOGE: Aleksandra Naumov, Sementa Rajhard, Alen Šalinović, Mladen Vassary, Dražen Bratulić

General
Name..............: Luka.i.čarobni.muzej.2018.HRsink.720p.RERip-little eagle.mkv
Container.........: Matroska
Size..............: 1.04 GiB
Duration..........: 1 h 22 min

Video
Codec.............: x264
Aspect ratio......: 16:9
Resolution........: 1280x720 pixels
Bitrate...........: 1 610 kb
Frame rate........: 25.000 FPS

Audio
Audio # 1..........: AC-3 2.0ch @ 160kb Croatian

Kod:
https://mega.nz/#!c85FRRrK!b9eOghnrzj2knoQd51bZgychbKz6lHet4CbR2fy7iA8

_________________
"The camera is an instrument that teaches people how to see without a camera" - Dorothea Lang
slika


Povratak na vrh
  
 
 Naslov: Re: Sinkro crtići
PostPostano: 13 lis 2018 13:51 
Offline
Avatar

Pridružen: 04 ožu 2015 14:28
Postovi: 595
Lokacija: ZG
slika

Kao beba, princ Šarmer je blagoslovljen neodoljivim šarmom zbog kojeg se na njega sve žene lijepe kao magnet. Svaka žena koju upozna se zaljubljuje u njega. Nakon što se nađe zaručen s tri djevojke, princ uz pomoć stranca odluči krenuti u potragu za pravom ljubavi. Međutim, stranac „Lenny” krije veliku tajnu.

ULOGE: Radovan Ruždjak, Tena Jeić Gajski, Mila Elegović, Renata Sabljak, Hana Hegedušić, Vanda Winter


--------------------------------------------------------------------------------------------------
Rip Info:
--------------------------------------------------------------------------------------------------
zanr..............: animirani
velicina..........: 853 MB
video.............: MPEG-4@~ 1291 Kbps
audio.............: MP3@~160 Kbps
reza..............: 704 x 400 @ 25.000 fps
trajanje..........: 1h 21mn
format............: XviD
jezik.............: hrvatski
titlovi...........: /
source............: DVB


Kod:
https://mega.nz/#!tgQgzICC!WBmnEJoeeMJT0BgzZGSrKucsmqM_hRTgyGKBiVzzs0Q

_________________
"The camera is an instrument that teaches people how to see without a camera" - Dorothea Lang
slika


Povratak na vrh
  
 
 [ 195 post(ov)a ]  Stranica Prethodna  1 ... 16, 17, 18, 19, 20  Sljedeća

Vremenska zona: UTC + 01:00 [LJV]


Online

Trenutno korisnika: / i 0 gostiju.


Ne možeš započinjati nove teme.
Ne možeš odgovarati na postove.
Ne možeš uređivati svoje postove.
Ne možeš izbrisati svoje postove.
Ne možeš postati privitke.

Idi na:  
Powered by phpBB © 2000, 2002, 2005, 2007 phpBB Group
HR (CRO) by vaper club