Vaper club

e-cigarete forum
Zadnji put si ovdje bio: 06 srp 2020 15:09. Sada je: 06 srp 2020 15:09.

Vremenska zona: UTC + 01:00 [LJV]




 [ 285 post(ov)a ]  Stranica Prethodna  1 ... 25, 26, 27, 28, 29  Sljedeća
Autor Poruka
 Naslov: Re: Sinkro crtići
PostPostano: 02 sij 2020 15:15 
Offline
Avatar

Pridružen: 04 ožu 2015 14:28
Postovi: 685
Lokacija: ZG
slika

General
Complete name : The Snow Queen 4 - Mirror Lands BluRay 1080p AVC AC3 5.1 MP3 HR SI sink.mkv
Format : Matroska
Format version : Version 4 / Version 2
File size : 5.69 GiB
Duration : 1h 27mn
Overall bit rate : 9 313 Kbps
Encoded date : UTC 2019-12-29 10:56:21
Writing application : mkvmerge v31.0.0 ('Dolores In A Shoestand') 64-bit
Writing library : libebml v1.3.6 + libmatroska v1.4.9

Video
ID : 1
Format : AVC
Format/Info : Advanced Video Codec
Format profile : Main@L4.2
Format settings, CABAC : Yes
Format settings, ReFrames : 1 frame
Codec ID : V_MPEG4/ISO/AVC
Duration : 1h 27mn
Bit rate : 7 779 Kbps
Width : 1 920 pixels
Height : 804 pixels
Display aspect ratio : 2.40:1
Frame rate mode : Constant
Frame rate : 23.976 (23976/1000) fps
Original frame rate : 23.976 (24000/1001) fps
Color space : YUV
Chroma subsampling : 4:2:0
Bit depth : 8 bits
Scan type : Progressive
Bits/(Pixel*Frame) : 0.210
Stream size : 4.75 GiB (84%)
Default : Yes
Forced : No

Audio #1
ID : 2
Format : AC-3
Format/Info : Audio Coding 3
Mode extension : CM (complete main)
Format settings, Endianness : Big
Codec ID : A_AC3
Duration : 1h 27mn
Bit rate mode : Constant
Bit rate : 448 Kbps
Channel(s) : 6 channels
Channel positions : Front: L C R, Side: L R, LFE
Sampling rate : 48.0 KHz
Frame rate : 31.250 fps (1536 spf)
Compression mode : Lossy
Stream size : 280 MiB (5%)
Title : DD 5.1
Language : Croatian
Default : Yes
Forced : No

Audio #2
ID : 3
Format : AC-3
Format/Info : Audio Coding 3
Mode extension : CM (complete main)
Format settings, Endianness : Big
Codec ID : A_AC3
Duration : 1h 27mn
Bit rate mode : Constant
Bit rate : 448 Kbps
Channel(s) : 6 channels
Channel positions : Front: L C R, Side: L R, LFE
Sampling rate : 48.0 KHz
Frame rate : 31.250 fps (1536 spf)
Compression mode : Lossy
Stream size : 279 MiB (5%)
Title : DD 5.1
Language : Slovenian
Default : No
Forced : No

Audio #3
ID : 4
Format : MPEG Audio
Format version : Version 1
Format profile : Layer 3
Codec ID : A_MPEG/L3
Codec ID/Hint : MP3
Duration : 1h 27mn
Bit rate mode : Constant
Bit rate : 320 Kbps
Channel(s) : 2 channels
Sampling rate : 44.1 KHz
Frame rate : 38.281 fps (1152 spf)
Compression mode : Lossy
Stream size : 200 MiB (3%)
Writing library : LAMELAME_MAJOR_VERSI
Default : No
Forced : No

Audio #4
ID : 5
Format : MPEG Audio
Format version : Version 1
Format profile : Layer 3
Codec ID : A_MPEG/L3
Codec ID/Hint : MP3
Duration : 1h 27mn
Bit rate mode : Constant
Bit rate : 320 Kbps
Channel(s) : 2 channels
Sampling rate : 44.1 KHz
Frame rate : 38.281 fps (1152 spf)
Compression mode : Lossy
Stream size : 199 MiB (3%)
Writing library : LAMELAME_MAJOR_VERSI
Default : No
Forced : No


Kod:
https://mega.nz/#!9lpRla7A!hq8mmkK-3K_Fd-0NZCFlTX-BgPudX7gqVoaWrxzByQc


.

_________________
"The camera is an instrument that teaches people how to see without a camera" - Dorothea Lang
slika


Povratak na vrh
  
 
 Naslov: Re: Sinkro crtići
PostPostano: 02 sij 2020 17:45 
Offline
Avatar

Pridružen: 04 ožu 2015 14:28
Postovi: 685
Lokacija: ZG
slika

NIJE sinkroniziran.

General
Complete name : Frozen.2.2019.DVDScr.XVID.AC3.HQ.Hive-CM8.avi
Format : AVI
Format/Info : Audio Video Interleave
File size : 1.64 GiB
Duration : 1h 43mn
Overall bit rate : 2 269 Kbps
Writing application : Nandub v1.0rc2
Writing library : Nandub build 1853/release

Video
ID : 0
Format : MPEG-4 Visual
Format profile : Advanced Simple@L5
Format settings, BVOP : 2
Format settings, QPel : Yes
Format settings, GMC : No warppoints
Format settings, Matrix : Default (H.263)
Muxing mode : Packed bitstream
Codec ID : XVID
Codec ID/Hint : XviD
Duration : 1h 43mn
Bit rate : 2 004 Kbps
Width : 720 pixels
Height : 304 pixels
Display aspect ratio : 2.35:1
Frame rate : 23.976 (24000/1001) fps
Color space : YUV
Chroma subsampling : 4:2:0
Bit depth : 8 bits
Scan type : Progressive
Compression mode : Lossy
Bits/(Pixel*Frame) : 0.382
Stream size : 1.44 GiB (88%)
Writing library : XviD 1.2.1 (UTC 2008-12-04)

Audio
ID : 1
Format : AC-3
Format/Info : Audio Coding 3
Mode extension : CM (complete main)
Format settings, Endianness : Big
Codec ID : 2000
Duration : 1h 43mn
Bit rate mode : Constant
Bit rate : 256 Kbps
Channel(s) : 2 channels
Channel positions : Front: L R
Sampling rate : 48.0 KHz
Frame rate : 31.250 fps (1536 spf)
Compression mode : Lossy
Stream size : 189 MiB (11%)
Alignment : Split accross interleaves
Interleave, duration : 42 ms (1.00 video frame)
Interleave, preload duratio : 500 ms


Kod:
https://mega.nz/#!4tQiyQTA!UEhVSfkTLNfML3DpV2MLeuSKp0JsxbqnQUgo4lpGkYY


.

_________________
"The camera is an instrument that teaches people how to see without a camera" - Dorothea Lang
slika


Povratak na vrh
  
 
 Naslov: Re: Sinkro crtići
PostPostano: 24 sij 2020 23:47 
Offline
Avatar

Pridružen: 04 ožu 2015 14:28
Postovi: 685
Lokacija: ZG
slika

General

Complete name : \The.Big.Trip.2019.1080p.WEB-DL.AAC.2.0.H.264.CRO-DIAMOND.mkv
Format : Matroska
Format version : Version 4 / Version 2
File size : 2.74 GiB
Duration : 1h 23mn
Overall bit rate : 4 676 Kbps
Movie name : CRO DIAMOND 1080p
Encoded date : UTC 2020-01-21 21:52:07
Writing application : mkvmerge v7.2.0 ('On Every Street') 64bit built on Oct 7 2014 18:52:30
Writing library : libebml v1.3.0 + libmatroska v1.4.1

Video
ID : 1
Format : AVC
Format/Info : Advanced Video Codec
Format profile : High@L4
Format settings, CABAC : Yes
Format settings, ReFrames : 5 frames
Codec ID : V_MPEG4/ISO/AVC
Duration : 1h 23mn
Bit rate : 4 545 Kbps
Width : 1 916 pixels
Height : 796 pixels
Display aspect ratio : 2.40:1
Frame rate mode : Variable
Frame rate : 23.976 (23976/1000) fps
Color space : YUV
Chroma subsampling : 4:2:0
Bit depth : 8 bits
Scan type : Progressive
Bits/(Pixel*Frame) : 0.124
Stream size : 2.66 GiB (97%)
Title : CRO DIAMOND 1080p
Default : Yes
Forced : No
Color range : Limited
Color primaries : BT.709
Transfer characteristics : BT.709
Matrix coefficients : BT.709

Audio
ID : 2
Format : AAC
Format/Info : Advanced Audio Codec
Format profile : LC
Codec ID : A_AAC
Duration : 1h 23mn
Bit rate : 128 Kbps
Channel(s) : 2 channels
Channel positions : Front: L R
Sampling rate : 44.1 KHz
Frame rate : 43.066 fps (1024 spf)
Compression mode : Lossy
Delay relative to video : -46ms
Stream size : 76.9 MiB (3%)
Language : Croatian
Default : Yes
Forced : No


Kod:
https://mega.nz/#!U9AiCIwC!roXpSX0CwoUxQoK4hYkl0eYRUIKmDC1jySxx3FpuxQM


.

_________________
"The camera is an instrument that teaches people how to see without a camera" - Dorothea Lang
slika


Povratak na vrh
  
 
 Naslov: Re: Sinkro crtići
PostPostano: 05 vel 2020 20:02 
Offline
Avatar

Pridružen: 04 ožu 2015 14:28
Postovi: 685
Lokacija: ZG
slika

General
Complete name : \Cudesni.park.2019.Hrsink.1080p.BRRip.x264-lujo.mp4
Format : MPEG-4
Format profile : Base Media
Codec ID : isom (isom/avc1)
File size : 1.49 GiB
Duration : 1h 25mn
Overall bit rate mode : Variable
Overall bit rate : 2 502 Kbps
Encoded date : UTC 2020-02-04 13:47:30
Tagged date : UTC 2020-02-04 13:47:30

Video
Format : AVC
Format/Info : Advanced Video Codec
Format profile : High@L4.1
Format settings, CABAC : Yes
Format settings, ReFrames : 4 frames
Codec ID : avc1
Codec ID/Info : Advanced Video Coding
Duration : 1h 25mn
Bit rate : 2 341 Kbps
Maximum bit rate : 10.9 Mbps
Width : 1 920 pixels
Height : 800 pixels
Display aspect ratio : 2.40:1
Frame rate mode : Constant
Frame rate : 23.976 (24000/1001) fps
Color space : YUV
Chroma subsampling : 4:2:0
Bit depth : 8 bits
Scan type : Progressive
Bits/(Pixel*Frame) : 0.064
Stream size : 1.39 GiB (94%)

Audio
ID : 2
Format : AAC
Format/Info : Advanced Audio Codec
Format profile : LC
Codec ID : 40
Duration : 1h 25mn
Bit rate mode : Variable
Bit rate : 157 Kbps
Maximum bit rate : 191 Kbps
Channel(s) : 2 channels
Channel positions : Front: L R
Sampling rate : 48.0 KHz
Frame rate : 46.875 fps (1024 spf)
Compression mode : Lossy
Stream size : 96.0 MiB (6%)
Language : Croatian

Kod:
https://mega.nz/#!s6ADkAZD!y_7ntj0_SuO_3ip7h7ZXEhl9mEwBHnUmG0rCw94jKIw


.

_________________
"The camera is an instrument that teaches people how to see without a camera" - Dorothea Lang
slika


Povratak na vrh
  
 
 Naslov: Re: Sinkro crtići
PostPostano: 21 vel 2020 23:15 
Offline

Pridružen: 24 stu 2015 12:38
Postovi: 20
Lokacija: Zabreg
Ojojojojojojojoj!!

Hvalaaaaa za Čudesni park :hug:


Povratak na vrh
  
 
 Naslov: Re: Sinkro crtići
PostPostano: 06 ožu 2020 20:09 
Offline
Avatar

Pridružen: 04 ožu 2015 14:28
Postovi: 685
Lokacija: ZG
slika

Serija, 26 epizoda po 22 minute.

General
Complete name : \Lavlja.Straza-The.Lion.Guard.S1.HRsink.WEB-DL.1080p\The.Lion.Guard.S01E01.The.Rise.of.Makku.1080p.WEB-DL.x264-HR.mkv
Format : Matroska
Format version : Version 4 / Version 2
File size : 188 MiB
Duration : 22mn 31s
Overall bit rate : 1 164 Kbps
Encoded date : UTC 2020-03-05 00:52:39
Writing application : mkvmerge v8.3.0 ('Over the Horizon') 64bit
Writing library : libebml v1.3.1 + libmatroska v1.4.2

Video
ID : 1
Format : AVC
Format/Info : Advanced Video Codec
Format profile : High@L4.1
Format settings, CABAC : Yes
Format settings, ReFrames : 8 frames
Codec ID : V_MPEG4/ISO/AVC
Duration : 22mn 31s
Bit rate : 1 037 Kbps
Width : 1 920 pixels
Height : 1 080 pixels
Display aspect ratio : 16:9
Frame rate mode : Constant
Frame rate : 23.976 (23976/1000) fps
Color space : YUV
Chroma subsampling : 4:2:0
Bit depth : 8 bits
Scan type : Progressive
Bits/(Pixel*Frame) : 0.021
Stream size : 167 MiB (89%)

Audio
ID : 2
Format : AC-3
Format/Info : Audio Coding 3
Mode extension : CM (complete main)
Format settings, Endianness : Big
Codec ID : A_AC3
Duration : 22mn 0s
Bit rate mode : Constant
Bit rate : 128 Kbps
Channel(s) : 2 channels
Channel positions : Front: L R
Sampling rate : 48.0 KHz
Frame rate : 31.250 fps (1536 spf)
Compression mode : Lossy
Stream size : 20.2 MiB (11%)
Language : Croatian
Default : Yes
Forced : No


Kod:
https://mega.nz/#!MuZjxaxD!yjxUi_Q39msb3KNZcKenzJbaJaMNB80pbrPUk-uVRIo
https://mega.nz/#!QmAjEapI!GEBIg-z--Ha6-aofZC2AV2c-8fpdNjwv2KNJoU6lWvs
https://mega.nz/#!x6ATkahb!SZVGen6QvesS13UUph8lfJSfU6-HUBJBxsnuuiBy3pE
https://mega.nz/#!ojBxxKQT!ZXNXAKPzAvZUgmrkqeZHFcNoEKng3DQs5gMssLrMWMc
https://mega.nz/#!VuZVwIYS!YvHn4OWkR2GmgHarnZP_hKAkotN-LoIQv18cNe2DXrI
https://mega.nz/#!pvJjhKyT!p360Z-yVyXskPAuKr1JmGq3Xz_zX-EG1pO5O7QByQpQ
https://mega.nz/#!YmAVjK7Q!OfXeBpxkFiw4d_YWcoGZKyBwsDCwjKDIlR2LzpGFMoo


.

_________________
"The camera is an instrument that teaches people how to see without a camera" - Dorothea Lang
slika


Povratak na vrh
  
 
 Naslov: Re: Sinkro crtići
PostPostano: 09 ožu 2020 22:48 
Offline
Avatar

Pridružen: 04 ožu 2015 14:28
Postovi: 685
Lokacija: ZG
slika

General
Complete name : \The.Lion.King.2019.1080p.BluRay.H264.AC3-HR\The.Lion.King.2019.1080p.BluRay.H264.AC3-HR.mkv
Format : Matroska
Format version : Version 4 / Version 2
File size : 2.52 GiB
Duration : 1h 58mn
Overall bit rate : 3 046 Kbps
Encoded date : UTC 2020-03-09 16:26:06
Writing application : mkvmerge v8.3.0 ('Over the Horizon') 64bit
Writing library : libebml v1.3.1 + libmatroska v1.4.2

Video
ID : 1
Format : AVC
Format/Info : Advanced Video Codec
Format profile : High@L4.1
Format settings, CABAC : Yes
Format settings, ReFrames : 4 frames
Codec ID : V_MPEG4/ISO/AVC
Duration : 1h 58mn
Bit rate : 2 500 Kbps
Width : 1 920 pixels
Height : 1 080 pixels
Display aspect ratio : 16:9
Frame rate mode : Constant
Frame rate : 23.976 (23976/1000) fps
Color space : YUV
Chroma subsampling : 4:2:0
Bit depth : 8 bits
Scan type : Progressive
Bits/(Pixel*Frame) : 0.050
Stream size : 2.06 GiB (82%)
Default : Yes
Forced : No

Audio #1
ID : 2
Format : AC-3
Format/Info : Audio Coding 3
Mode extension : CM (complete main)
Format settings, Endianness : Big
Codec ID : A_AC3
Duration : 1h 58mn
Bit rate mode : Constant
Bit rate : 320 Kbps
Channel(s) : 2 channels
Channel positions : Front: L R
Sampling rate : 48.0 KHz
Frame rate : 31.250 fps (1536 spf)
Compression mode : Lossy
Delay relative to video : -27ms
Stream size : 271 MiB (11%)
Language : Croatian
Default : Yes
Forced : No

Audio #2
ID : 3
Format : AAC
Format/Info : Advanced Audio Codec
Format profile : LC
Codec ID : A_AAC
Duration : 1h 58mn
Bit rate : 224 Kbps
Channel(s) : 6 channels
Channel positions : Front: L C R, Side: L R, LFE
Sampling rate : 48.0 KHz
Frame rate : 46.875 fps (1024 spf)
Compression mode : Lossy
Delay relative to video : -43ms
Stream size : 189 MiB (7%)
Language : English
Default : No
Forced : No

Text
ID : 4
Format : UTF-8
Codec ID : S_TEXT/UTF8
Codec ID/Info : UTF-8 Plain Text
Duration : 1h 46mn
Bit rate : 42 bps
Count of elements : 959
Stream size : 32.9 KiB (0%)
Language : Croatian
Default : No
Forced : No

Kod:
https://mega.nz/#!83QmGI4C!6ld_CpyIoLi0DWATxW8ySbS848WIZSYjKVJzCqL26Ns



.

_________________
"The camera is an instrument that teaches people how to see without a camera" - Dorothea Lang
slika


Povratak na vrh
  
 
 Naslov: Re: Sinkro crtići
PostPostano: 19 ožu 2020 11:45 
Offline

Pridružen: 24 stu 2015 12:38
Postovi: 20
Lokacija: Zabreg
Bravoooooo!

Hvala za Kralja lafofa :popcorn:

Treba nekako popunit ove krizne dane hihihihihihi


Povratak na vrh
  
 
 Naslov: Re: Sinkro crtići
PostPostano: 22 ožu 2020 20:12 
Offline
Avatar

Pridružen: 04 ožu 2015 14:28
Postovi: 685
Lokacija: ZG
slika

Complete name : \Prica.o.igrackama.4.2019.HRsink.1080p.BluRay.x264.AAC-CLiNT.mkv
Format : Matroska
Format version : Version 4 / Version 2
File size : 1.90 GiB
Duration : 1h 40mn
Overall bit rate : 2 723 Kbps
Movie name : Priča.o.igrackama.4.2019.HRsink.1080p.BluRay.x264.AAC-CLiNT

Video
ID : 1
Format : AVC
Format/Info : Advanced Video Codec
Format profile : High@L4.1
Format settings, CABAC : Yes
Format settings, ReFrames : 4 frames
Codec ID : V_MPEG4/ISO/AVC
Duration : 1h 40mn
Bit rate : 2 500 Kbps
Width : 1 920 pixels
Height : 808 pixels
Display aspect ratio : 2.40:1
Frame rate mode : Constant
Frame rate : 23.976 (23976/1000) fps
Color space : YUV
Chroma subsampling : 4:2:0
Bit depth : 8 bits
Scan type : Progressive
Bits/(Pixel*Frame) : 0.067
Stream size : 1.75 GiB (92%)
Default : Yes
Forced : Yes

Audio
ID : 2
Format : AAC
Format/Info : Advanced Audio Codec
Format profile : LC
Codec ID : A_AAC
Duration : 1h 40mn
Bit rate : 221 Kbps
Channel(s) : 2 channels
Channel positions : Front: L R
Sampling rate : 48.0 KHz
Frame rate : 46.875 fps (1024 spf)
Compression mode : Lossy
Delay relative to video : -43ms
Stream size : 158 MiB (8%)
Language : Croatian
Default : No
Forced : No



Kod:
https://mega.nz/#!h3gUzShB!a1Z8-gyDfHdEnXgvSWK1JSabLjzwqxy6nL4JHkpoxDU



.

_________________
"The camera is an instrument that teaches people how to see without a camera" - Dorothea Lang
slika


Povratak na vrh
  
 
 Naslov: Re: Sinkro crtići
PostPostano: 28 tra 2020 14:20 
Offline
Avatar

Pridružen: 04 ožu 2015 14:28
Postovi: 685
Lokacija: ZG
slika

1080p, 1,78Gb

Kod:
https://mega.nz/file/QypDmIbQ#F2pZ6p3XdcWK2cC1n15vO0MxTatTo5ufRuzkhEUwlRg


.

_________________
"The camera is an instrument that teaches people how to see without a camera" - Dorothea Lang
slika


Povratak na vrh
  
 
 [ 285 post(ov)a ]  Stranica Prethodna  1 ... 25, 26, 27, 28, 29  Sljedeća

Vremenska zona: UTC + 01:00 [LJV]


Online

Trenutno korisnika: crawl i 0 gostiju.


Ne možeš započinjati nove teme.
Ne možeš odgovarati na postove.
Ne možeš uređivati svoje postove.
Ne možeš izbrisati svoje postove.
Ne možeš postati privitke.

Idi na:  
Powered by phpBB © 2000, 2002, 2005, 2007 phpBB Group
HR (CRO) by vaper club