Vaper club

e-cigarete forum
Zadnji put si ovdje bio: 14 lis 2019 11:26. Sada je: 14 lis 2019 11:26.

Vremenska zona: UTC + 01:00 [LJV]




 [ 264 post(ov)a ]  Stranica Prethodna  1 ... 23, 24, 25, 26, 27
Autor Poruka
 Naslov: Re: Sinkro crtići
PostPostano: 24 ruj 2019 18:11 
Offline
Avatar

Pridružen: 04 ožu 2015 14:28
Postovi: 652
Lokacija: ZG
Novi link za Malog Princa

Kod:
https://mega.nz/#!ZSASVIbb!uFczPnaEUlG34v0X5pNNYx67Uf0T4aJw7MgJ1fr1t50


.

_________________
"The camera is an instrument that teaches people how to see without a camera" - Dorothea Lang
slika


Povratak na vrh
  
 
 Naslov: Re: Sinkro crtići
PostPostano: 03 lis 2019 23:07 
Offline
Avatar

Pridružen: 04 ožu 2015 14:28
Postovi: 652
Lokacija: ZG
slika

General
Complete name : Gospodin.Link.U.potrazi.za.skrivenim.gradom.AKA.Missing.Link.2019.HRSiNK.1080p.BluRay.DD5.1.x264-FaKE.mkv
Format : Matroska
Format version : Version 4
File size : 4.37 GiB
Duration : 1 h 34 min
Overall bit rate : 6 621 kb/s

Video
ID : 1
Format : AVC
Format/Info : Advanced Video Codec
Format profile : High@L4.1
Format settings : CABAC / 5 Ref Frames
Format settings, CABAC : Yes
Format settings, RefFrames : 5 frames
Codec ID : V_MPEG4/ISO/AVC
Duration : 1 h 34 min
Bit rate : 5 980 kb/s
Width : 1 920 pixels
Height : 800 pixels
Stream size : 3.94 GiB (90%)

Audio
ID : 2
Format : AC-3
Format/Info : Audio Coding 3
Commercial name : Dolby Digital
Codec ID : A_AC3
Duration : 1 h 34 min
Bit rate mode : Constant
Bit rate : 640 kb/s
Channel(s) : 6 channels
Channel layout : L R C LFE Ls Rs
Sampling rate : 48.0 kHz
Frame rate : 31.250 FPS (1536 SPF)
Bit depth : 16 bits
Compression mode : Lossy
Delay relative to video : 1 s 700 ms
Stream size : 432 MiB (10%)
Language : Croatian
Service kind : Complete Main
Default : Yes
Forced : No

Kod:
https://mega.nz/#!Nb5xVCrT!JQwUL_Sup1hrnBl5jrWZCOQ028SVoZ9z7DXKfVBraz4



.

_________________
"The camera is an instrument that teaches people how to see without a camera" - Dorothea Lang
slika


Povratak na vrh
  
 
 Naslov: Re: Sinkro crtići
PostPostano: 09 lis 2019 19:39 
Offline
Avatar

Pridružen: 04 ožu 2015 14:28
Postovi: 652
Lokacija: ZG
slika

Name............: Elliot.The.Littlest.Reindeer.2018.CroSink.1080p.WEB-DL.DD.5.1-Kvazdej
Source..........: ELLIOT_2018_WEB_DL_1080p-BLUEBIRD + Cinestar TV
Genre ..........: Animation, Family
Release Size....: 3.11 GiB
Video Length....: 1 h 29 min
Video Codec ....: x264
Video Bitrate...: 4517 kb/s
Resolution .....: 1920x804
Framerate ......: 24.000 fps
Quality Factor .: 0.122 bits/pixel
Aspect Ratio....: 2.40:1
Chapter ........: DA

Audio ..........: Croatian AC-3 5.1 - 448 kb/s
Sampling Rate ..: 48000 Hz

Kod:
https://mega.nz/#!dWAmDaDA!LQo84rUVI4ouiucPsE4k838gkb8o877A5MuP7Z1MSIw


.

_________________
"The camera is an instrument that teaches people how to see without a camera" - Dorothea Lang
slika


Povratak na vrh
  
 
 Naslov: Re: Sinkro crtići
PostPostano: 11 lis 2019 20:43 
Offline
Avatar

Pridružen: 04 ožu 2015 14:28
Postovi: 652
Lokacija: ZG
slika

Complete name : The.Secret.Life.of.Pets.2.2019.HrSink.BluRay.1080p.MP3.mp4
Format : MPEG-4
Format profile : Base Media / Version 2
Codec ID : mp42 (mp42/isom)
File size : 1.21 GiB
Duration : 1h 26mn
Overall bit rate : 2 015 Kbps

Video
ID : 1
Format : AVC
Format/Info : Advanced Video Codec
Format profile : Main@L4.2
Format settings, CABAC : Yes
Format settings, ReFrames : 1 frame
Codec ID : avc1
Codec ID/Info : Advanced Video Coding
Duration : 1h 26mn
Source duration : 1h 26mn
Bit rate : 1 777 Kbps
Width : 1 920 pixels
Height : 1 036 pixels
Display aspect ratio : 1.85:1
Frame rate mode : Constant
Frame rate : 23.976 (23976/1000) fps
Stream size : 1.07 GiB (88%)
Source stream size : 1.07 GiB (88%)
Language : English

Audio
ID : 2
Format : AAC
Format/Info : Advanced Audio Codec
Format profile : LC
Codec ID : 40
Duration : 1h 26mn
Bit rate mode : Constant
Bit rate : 234 Kbps
Nominal bit rate : 256 Kbps
Channel(s) : 2 channels
Channel positions : Front: L R
Sampling rate : 44.1 KHz
Frame rate : 43.066 fps (1024 spf)
Compression mode : Lossy
Stream size : 144 MiB (12%)
Language : English
Encoded date : UTC 2019-10-10 18:21:57
Tagged date : UTC 2019-10-10 18:21:57

Kod:
https://mega.nz/#!lHhg1QQJ!lLT7U0t0NnsEUkGsT-2LfRs3SXrgXELbvCOlK9G976o



.

_________________
"The camera is an instrument that teaches people how to see without a camera" - Dorothea Lang
slika


Povratak na vrh
  
 
 [ 264 post(ov)a ]  Stranica Prethodna  1 ... 23, 24, 25, 26, 27

Vremenska zona: UTC + 01:00 [LJV]


Online

Trenutno korisnika: crawl i 0 gostiju.


Ne možeš započinjati nove teme.
Ne možeš odgovarati na postove.
Ne možeš uređivati svoje postove.
Ne možeš izbrisati svoje postove.
Ne možeš postati privitke.

Idi na:  
Powered by phpBB © 2000, 2002, 2005, 2007 phpBB Group
HR (CRO) by vaper club