Vaper club

e-cigarete forum
Zadnji put si ovdje bio: 21 ruj 2019 14:23. Sada je: 21 ruj 2019 14:23.

Vremenska zona: UTC + 01:00 [LJV]




 [ 259 post(ov)a ]  Stranica Prethodna  1 ... 22, 23, 24, 25, 26
Autor Poruka
 Naslov: Re: Sinkro crtići
PostPostano: 22 lip 2019 20:47 
Offline

Pridružen: 24 stu 2015 12:38
Postovi: 17
Lokacija: Zabreg
Hvala još jednom ! :hug:


Povratak na vrh
  
 
 Naslov: Re: Sinkro crtići
PostPostano: 28 lip 2019 20:30 
Offline
Avatar

Pridružen: 04 ožu 2015 14:28
Postovi: 648
Lokacija: ZG
slika

Opis: U animiranoj komediji za cijelu obitelj, redatelja Christophera Jenkinsa, susrećemo se s likom simpatičnog gusana po imenu Peng. Peng je umišljen, svojevoljni neženja, kojeg ne zanima tradicija njegove vrste, ni obiteljske vrijednosti, a djeca su mu toliko odbojna da čak odbija predvoditi jato mlađih naraštaja u skoroj selidbi na jug. Voli svoju slobodu i živi u trenutku, bez brige i pameti. Uvjeren da o svemu zna najbolje te da je u svemu bolji od drugih, vrijeme provodi odvajajući se od jata i izvodeći lude akrobacije u letu. Prilikom jedna takve vratolomije, Peng se zanese, doživljava nezgodu te pada u jato pačića. Pritom nehotice razdvaja brata i sestru, 16 dana stare Chao i Chi, od ostalih njihove vrste. Ozlijeđenog krila, zaglavio je na tlu i u toplije krajeve mora pješice. Kao da to nije bilo dovoljno, na taj put sada mora s patkama.

General

Complete name : Duck.Duck.Goose.2018.1080p.HRV.BluRay.DD5.1.H.264.CRO-DIAMOND.mkv
File size : 4.09 GiB
Duration : 1h 31mn
Overall bit rate : 6 403 Kbps

Video
Bit rate : 6 000 Kbps
Width : 1 920 pixels
Height : 1 080 pixels
Display aspect ratio : 16:9
Frame rate mode : Constant
Frame rate : 23.976 fps

Audio
Format : AC-3
Format/Info : Audio Coding 3
Mode extension : CM (complete main)
Format settings, Endianness : Big
Codec ID : A_AC3
Duration : 1h 31mn
Bit rate mode : Constant
Bit rate : 384 Kbps
Channel(s) : 6 channels
Channel positions : Front: L C R, Side: L R, LFE
Sampling rate : 44.1 KHz
Compression mode : Lossy
Stream size : 251 MiB (6%)
Language : Croatian
Default : Yes
Forced : No

Kod:
https://mega.nz/#!EdU1AITb!-7QamYRJkhAsEtIB_wpGM-VW0bsPe58r5nryJswXjp8


.

_________________
"The camera is an instrument that teaches people how to see without a camera" - Dorothea Lang
slika


Povratak na vrh
  
 
 Naslov: Re: Sinkro crtići
PostPostano: 05 kol 2019 14:33 
Offline
Avatar

Pridružen: 04 ožu 2015 14:28
Postovi: 648
Lokacija: ZG
slika

--------------------------------------------------------------------------------------------------
Rip Info:
--------------------------------------------------------------------------------------------------
zanr..............: dječji
velicina..........: 494 MB
video.............: x264@~ 785 Kbps
audio.............: AAC@~ 48 KHz
reza..............: 704 x 312 @ 25.000 fps
trajanje..........: 1h 15mn
format............: mp4
jezik.............: hrvatski
titlovi...........: /
source............: DVB
--------------------------------------------------------------------------------------------------


Kod:
https://mega.nz/#!kPQXhIKC!WtFGEn42nW0y8mjuKo2KehcU_8Uo2a_eCTjFhdzHiSQ


.

_________________
"The camera is an instrument that teaches people how to see without a camera" - Dorothea Lang
slika


Povratak na vrh
  
 
 Naslov: Re: Sinkro crtići
PostPostano: 05 kol 2019 14:41 
Offline
Avatar

Pridružen: 04 ožu 2015 14:28
Postovi: 648
Lokacija: ZG
slika


File name: The.Queens.Corgi.2019.HRSiNK.1080p.BluRay.AAC5.1.HEVC-Tag.mkv
Format: Matroska
File size: 1698,45 MiB
Duration: 1 h 25 min
Bitrate: 2 781 kb/s

Format: HEVC
Codec: V_MPEGH/ISO/HEVC
Format profile: Main 10@L5.1@High
Bitrate: 2 409 kb/s
Frame rate mode: Constant
Frame rate: 23.976 (24000/1001) FPS
Bit depth: 10 bits
Bits/(Pixel*Frame): 0.048
Stream size: 1.44 GiB (87%)
Resolution: 1920x1080
Aspect ratio: 16:9
Color space: YUV
Chroma subsampling: 4:2:0
Color range: Limited
Color primaries : BT.709
Transfer characteristics : BT.709
Matrix coefficients : BT.709
Default: Yes

Audio #1:
Format: AAC
Format/Info: Advanced Audio Codec
Bit rate: 370 kb/s
Channels: 6 channels
Sampling rate: 48.0 kHz
Compression mode: Lossy
Delay relative to video: 9 ms
Stream size: 226 MiB (13%)
Language: Croatian
Default: Yes

Kod:
https://mega.nz/#!FGoj0ASb!Tk1Ldl8Wm0xAJPbPnDqVC8sFbdokXqRkIQGg2s1ladY


.

_________________
"The camera is an instrument that teaches people how to see without a camera" - Dorothea Lang
slika


Povratak na vrh
  
 
 Naslov: Re: Sinkro crtići
PostPostano: 16 kol 2019 23:07 
Offline
Avatar

Pridružen: 29 kol 2013 15:52
Postovi: 50
Lokacija: Trogir
Hvala!!


Povratak na vrh
  
 
 Naslov: Re: Sinkro crtići
PostPostano: 22 kol 2019 18:33 
Offline

Pridružen: 24 stu 2015 12:38
Postovi: 17
Lokacija: Zabreg
Joj joj joj, hvala za didu s marsa :hihi:


Povratak na vrh
  
 
 Naslov: Re: Sinkro crtići
PostPostano: 04 ruj 2019 20:58 
Offline
Avatar

Pridružen: 04 ožu 2015 14:28
Postovi: 648
Lokacija: ZG
slika

--------------------------------------------------------------------------------------------------
Rip Info:
--------------------------------------------------------------------------------------------------
zanr..............: animirani
velicina..........: 1,69 GB
video.............: x264@~ 2296 Kbps
audio.............: AAC@~ 48 KHz
reza..............: 1280 x 544 @ 25.000 fps
trajanje..........: 1h 40mn
format............: mp4
jezik.............: hrvatski
titlovi...........: /
source............: DVB


Kod:
https://mega.nz/#!NO5wCKDC!mCiUO9xtqzLKGNIuP9BOvpZNw8bL_bgnMS3CSEyiuSU


.

_________________
"The camera is an instrument that teaches people how to see without a camera" - Dorothea Lang
slika


Povratak na vrh
  
 
 Naslov: Re: Sinkro crtići
PostPostano: 17 ruj 2019 20:58 
Offline
Avatar

Pridružen: 04 ožu 2015 14:28
Postovi: 648
Lokacija: ZG
slika

General
Complete name : Arthur Christmas 2011 1080p BluRay - eMKaVg.mkv
Format : Matroska
Format version : Version 4 / Version 2
File size : 3.92 GiB
Duration : 1h 37mn
Overall bit rate : 5 754 Kbps
Movie name : Arthur Christmas 2011 BluRay - eMKaVg

Video
ID : 1
Format : AVC
Format/Info : Advanced Video Codec
Format profile : High@L4.1
Format settings, CABAC : Yes
Format settings, ReFrames : 4 frames
Codec ID : V_MPEG4/ISO/AVC
Duration : 1h 37mn
Bit rate : 5 112 Kbps
Width : 1 920 pixels
Height : 1 036 pixels
Display aspect ratio : 1.85:1
Frame rate mode : Constant
Frame rate : 23.976 (24000/1001) fps
Color space : YUV
Chroma subsampling : 4:2:0
Bit depth : 8 bits
Scan type : Progressive
Bits/(Pixel*Frame) : 0.107
Stream size : 3.48 GiB (89%)

Audio
ID : 2
Format : AC-3
Format/Info : Audio Coding 3
Mode extension : CM (complete main)
Format settings, Endianness : Big
Codec ID : A_AC3
Duration : 1h 37mn
Bit rate mode : Constant
Bit rate : 640 Kbps
Channel(s) : 6 channels
Channel positions : Front: L C R, Side: L R, LFE
Sampling rate : 48.0 KHz
Frame rate : 31.250 fps (1536 spf)
Compression mode : Lossy
Delay relative to video : -5ms
Stream size : 447 MiB (11%)
Language : Croatian
Default : Yes
Forced : Yes

Kod:
https://mega.nz/#!dKJQXCZD!W3Yn2u8KbBwhTCow_s3K0LL3dyKxAit1xIBwNtm2pIE


.

_________________
"The camera is an instrument that teaches people how to see without a camera" - Dorothea Lang
slika


Povratak na vrh
  
 
 Naslov: Re: Sinkro crtići
PostPostano: 19 ruj 2019 21:07 
Offline
Avatar

Pridružen: 04 ožu 2015 14:28
Postovi: 648
Lokacija: ZG
slika

9 epizoda TVrip

General
Complete name : \Kalimero.TV-Rip.CRO.Sinh-krecko\Kalimero Calimero - Istjeran van i sažaljevan CROsinh-krecko.avi
Format : AVI
Format/Info : Audio Video Interleave
File size : 58.5 MiB
Duration : 4mn 47s
Overall bit rate : 1 707 Kbps

Video
ID : 0
Format : MPEG-4 Visual
Format profile : Advanced Simple@L5
Format settings, BVOP : No
Format settings, QPel : No
Format settings, GMC : No warppoints
Format settings, Matrix : Default (MPEG)
Codec ID : XVID
Codec ID/Hint : XviD
Duration : 4mn 47s
Bit rate : 1 508 Kbps
Width : 484 pixels
Height : 360 pixels
Display aspect ratio : 4:3
Frame rate : 25.000 fps
Color space : YUV
Chroma subsampling : 4:2:0
Bit depth : 8 bits
Scan type : Progressive
Compression mode : Lossy
Bits/(Pixel*Frame) : 0.346
Stream size : 51.6 MiB (88%)
Writing library : XviD 1.2.1 (UTC 2008-12-04)

Audio
ID : 1
Format : MPEG Audio
Format version : Version 1
Format profile : Layer 3
Codec ID : 55
Codec ID/Hint : MP3
Duration : 4mn 47s
Bit rate mode : Constant
Bit rate : 192 Kbps
Channel(s) : 2 channels
Sampling rate : 44.1 KHz
Compression mode : Lossy
Stream size : 6.57 MiB (11%)
Alignment : Split accross interleaves
Interleave, duration : 80 ms (2.00 video frames)
Writing library : LAMELAME_MAJOR_VERSI


Kod:
https://mega.nz/#!4bRmjSgR!5ydasrlyxCC_VeJOEw3W_9p2QgaLFhIey9KA2L7Bkxs


.

_________________
"The camera is an instrument that teaches people how to see without a camera" - Dorothea Lang
slika


Povratak na vrh
  
 
 [ 259 post(ov)a ]  Stranica Prethodna  1 ... 22, 23, 24, 25, 26

Vremenska zona: UTC + 01:00 [LJV]


Online

Trenutno korisnika: crawl i 0 gostiju.


Ne možeš započinjati nove teme.
Ne možeš odgovarati na postove.
Ne možeš uređivati svoje postove.
Ne možeš izbrisati svoje postove.
Ne možeš postati privitke.

Idi na:  
Powered by phpBB © 2000, 2002, 2005, 2007 phpBB Group
HR (CRO) by vaper club