Vaper club

e-cigarete forum
Zadnji put si ovdje bio: 11 pro 2019 20:08. Sada je: 11 pro 2019 20:08.

Vremenska zona: UTC + 01:00 [LJV]




 [ 268 post(ov)a ]  Stranica Prethodna  1 ... 21, 22, 23, 24, 25, 26, 27  Sljedeća
Autor Poruka
 Naslov: Re: Sinkro crtići
PostPostano: 28 tra 2019 19:20 
Offline
Avatar

Pridružen: 04 ožu 2015 14:28
Postovi: 661
Lokacija: ZG
Ovo je jedini koji je sinkroniziran.

slika

General
Complete name : Spider-Man.Into.the.Spider-Verse.2018.720p.BluRay.x264-SPARKS.mkv
Format : Matroska
File size : 3.28 GiB
Duration : 1 h 56 min
Overall bit rate : 4 016 kb/s

Video
Format : AVC
Bit rate : 2 505 kb/s
Width : 1 280 pixels
Height : 536 pixels
Frame rate : 23.976 (24000/1001) FPS
Stream size : 2.04 GiB (62%)

Audio
Format : DTS
Bit rate : 1 509 kb/s
Channel(s) : 6 channels
Stream size : 1.23 GiB (38%)


Kod:
https://mega.nz/#!HssgCQrS!TF0mnkURL7IX9kcap2JqCubhpUeYyDFbuUXZS_ImsNA


.

_________________
"The camera is an instrument that teaches people how to see without a camera" - Dorothea Lang
slika


Povratak na vrh
  
 
 Naslov: Re: Sinkro crtići
PostPostano: 29 tra 2019 19:46 
Offline

Pridružen: 15 lis 2018 16:56
Postovi: 24
HVALA!!!


Povratak na vrh
  
 
 Naslov: Re: Sinkro crtići
PostPostano: 09 svi 2019 20:39 
Offline

Pridružen: 15 lis 2018 16:56
Postovi: 24
https://mega.nz/fm/gvRB2YIB

Uploadala sam Psiće u ophodnji (Paw Patrol) , samo ne znam jesam li to dobro?


Povratak na vrh
  
 
 Naslov: Re: Sinkro crtići
PostPostano: 10 svi 2019 07:46 
Offline
Avatar

Pridružen: 04 ožu 2015 14:28
Postovi: 661
Lokacija: ZG
Fali ti "key".
Na megi kada tražiš "get link" moraš kliknuti "with key" i onda ti daje onaj dugačak link.
I njega onda staviš u "Code". Onaj gumbić između "Quote" i "List".

_________________
"The camera is an instrument that teaches people how to see without a camera" - Dorothea Lang
slika


Povratak na vrh
  
 
 Naslov: Re: Sinkro crtići
PostPostano: 10 svi 2019 12:09 
Offline

Pridružen: 15 lis 2018 16:56
Postovi: 24
Kod:
https://mega.nz/#F!9u5TkQJR!OHrZNRb4sigo66rPYNPecw


Povratak na vrh
  
 
 Naslov: Re: Sinkro crtići
PostPostano: 10 svi 2019 15:56 
Offline

Pridružen: 15 lis 2018 16:56
Postovi: 24
Hvala na uputama. Je li sad dobro?


Povratak na vrh
  
 
 Naslov: Re: Sinkro crtići
PostPostano: 10 svi 2019 19:21 
Offline
Avatar

Pridružen: 04 ožu 2015 14:28
Postovi: 661
Lokacija: ZG
Je.
Iako bi bilo bolje da si zipnula i to stavila kao jedan file.

_________________
"The camera is an instrument that teaches people how to see without a camera" - Dorothea Lang
slika


Povratak na vrh
  
 
 Naslov: Re: Sinkro crtići
PostPostano: 13 svi 2019 13:15 
Offline

Pridružen: 15 lis 2018 16:56
Postovi: 24
Ima li netko možda drugu, treću itd. sezonu Psića u ophodnji (Paw Patrol) ?

Ja sam imala samo prvu, i mislim da nisu sve epizode...

https://www.imdb.com/title/tt3121722/ep ... t_eps_sn_1[liveleak][/liveleak]


Povratak na vrh
  
 
 Naslov: Re: Sinkro crtići
PostPostano: 13 svi 2019 13:34 
Offline

Pridružen: 15 lis 2018 16:56
Postovi: 24
Oprostite, ne znam zašto, ali ne će mi skinuti z04, z06 i z07 od Ladybug, Miraculous Lb & Cat Noir.

Je li možda još nekome tako?


Povratak na vrh
  
 
 Naslov: Re: Sinkro crtići
PostPostano: 15 svi 2019 17:13 
Offline
Avatar

Pridružen: 04 ožu 2015 14:28
Postovi: 661
Lokacija: ZG
Svi fileovi su na mjestu.
Nekaj kod tebe ne štima.

_________________
"The camera is an instrument that teaches people how to see without a camera" - Dorothea Lang
slika


Povratak na vrh
  
 
 [ 268 post(ov)a ]  Stranica Prethodna  1 ... 21, 22, 23, 24, 25, 26, 27  Sljedeća

Vremenska zona: UTC + 01:00 [LJV]


Online

Trenutno korisnika: crawl i 0 gostiju.


Ne možeš započinjati nove teme.
Ne možeš odgovarati na postove.
Ne možeš uređivati svoje postove.
Ne možeš izbrisati svoje postove.
Ne možeš postati privitke.

Idi na:  
Powered by phpBB © 2000, 2002, 2005, 2007 phpBB Group
HR (CRO) by vaper club