Vaper club

e-cigarete forum
Zadnji put si ovdje bio: 21 svi 2019 05:43. Sada je: 21 svi 2019 05:43.

Vremenska zona: UTC + 01:00 [LJV]




 [ 244 post(ov)a ]  Stranica Prethodna  1 ... 20, 21, 22, 23, 24, 25  Sljedeća
Autor Poruka
 Naslov: Re: Sinkro crtići
PostPostano: 11 ožu 2019 20:01 
Offline
Avatar

Pridružen: 04 ožu 2015 14:28
Postovi: 638
Lokacija: ZG
slika

Život u gradu Vinciju prolazi mirno: mladi Leo da Vinci radi na novim izumima uz pomoć prijatelja Lorenza dok ih njegova simpatija Lisa promatra i podruguje im se. Jednog dana Lisinu kuću zahvati iznenadni požar te obitelj više ne može plaćati dugove. Da bi spasili Lisu od neželjene udaje za plemića, ekipa se upusti u avanturu pronalaženja blaga i sukoba s piratima uz pomoć Leovih genijalnih izuma.

General
Name..............: Leo da Vinci Misija Mona Lisa (2....Y H264.AAC-little eagle.mkv
Container.........: Matroska
Size..............: 1.54 GiB
Duration..........: 1 h 21 min

Video
Codec.............: x264
Aspect ratio......: 2.40:1
Resolution........: 1920x800 pixels
Bitrate...........: 2 500 kb
Frame rate........: 24.000 FPS

Audio
Audio # 1..........: AAC LC 2.0ch @ 221kb Croatian

Kod:
https://mega.nz/#!aMwkgCwC!_GALXAuVAcECLTbg6cWzOXvhzX0o_ThsTKMQm7areOY


.

_________________
"The camera is an instrument that teaches people how to see without a camera" - Dorothea Lang
slika


Povratak na vrh
  
 
 Naslov: Re: Sinkro crtići
PostPostano: 07 tra 2019 20:46 
Offline
Avatar

Pridružen: 04 ožu 2015 14:28
Postovi: 638
Lokacija: ZG
slika

GRINCH - SINKRONIZIRANO
IZVORNO IME: The Grinch
REDATELJ: Yarrow Cheney, Scott Mosier | ŽANR: Animirani, komedija, obiteljski
ULOGE: Krešimir Mikić, Vanna Senjak, Janko Volarić Popović, Dijana Vidušin, Noa Zelenko, Ervin Baučić, Ksenija Marinković
TRAJANJE FILMA: 86 minuta | GODINA: 2018 | DRŽAVA: Kina, SAD
SADRŽAJ FILMA: Nakon punih 18 godina, omiljeno zeleno gunđalo vraća se na velike ekrane i to ovog puta u animiranom obliku. Još zeleniji i još mrzovoljniji, odlučan je u namjeri da upropasti Božić u selu Whoville: “Danas ćemo raditi zločeste stvari, *i* radit ćemo ih sa stilom!”
Illumination i Universal Pictures predstavljaju The Grinch, novu animiranu obiteljsku komediju temeljenu na obožavanom blagdanskom filmskom klasiku Dr. Seussa. Svima dobro poznato, cinično zeleno gunđalo odlučno je u namjeri da upropasti blagdane u selu Whoville, no, umjesto da on ukrade Božić kao što smjera, velikodušnost i bladganski duh mlade djevojčice preoteti će njegovo srce i možda čak spriječiti njegove zle namjere.

The.Grinch.2018.HRSiNK.1080p.BluRay.DD+7.1.x265-FaKE.mkv
Format : Matroska
Format version : Version 4
File size : 1.84 GiB
Duration : 1 h 25 min
Overall bit rate : 3 070 kb/s

Audio
Format : E-AC-3
Duration : 1 h 25 min
Bit rate mode : Constant
Bit rate : 768 kb/s
Channel(s) : 8 channels
Channel layout : L R C LFE Ls Rs Lb Rb
Sampling rate : 48.0 kHz
Frame rate : 31.250 FPS (1536 SPF)
Compression mode : Lossy
Stream size : 471 MiB (25%)
Language : Croatian


Kod:
https://mega.nz/#!vBQzkSqR!wH4KzDPUjkIsNKcEXBUZ7Y65yXb3SU6E2E0KSXuhRSs


.

_________________
"The camera is an instrument that teaches people how to see without a camera" - Dorothea Lang
slika


Povratak na vrh
  
 
 Naslov: Re: Sinkro crtići
PostPostano: 11 tra 2019 21:09 
Offline
Avatar

Pridružen: 29 kol 2013 15:52
Postovi: 48
Lokacija: Trogir
Hvala na grinchu ali nikako pokrenit nit s jednim playerom ni stream na webu, 3 puta skida fajl.


Povratak na vrh
  
 
 Naslov: Re: Sinkro crtići
PostPostano: 12 tra 2019 07:15 
Offline
Avatar

Pridružen: 04 ožu 2015 14:28
Postovi: 638
Lokacija: ZG
Možeš skinuti sa IE11 ili još bolje sa Chrome-om.
Moraš imati instaliran HEVC codec (k-lite codec pack) i gledati na PC-u. Malo playera podržava HEVC koding.

_________________
"The camera is an instrument that teaches people how to see without a camera" - Dorothea Lang
slika


Povratak na vrh
  
 
 Naslov: Re: Sinkro crtići
PostPostano: 12 tra 2019 11:27 
Offline
Avatar

Pridružen: 29 kol 2013 15:52
Postovi: 48
Lokacija: Trogir
ok hvala, budem prova prekodirat da mi tv moze zavrtit


Povratak na vrh
  
 
 Naslov: Re: Sinkro crtići
PostPostano: 12 tra 2019 14:34 
Offline
Avatar

Pridružen: 04 ožu 2015 14:28
Postovi: 638
Lokacija: ZG
Da ne prekodiravaš evo varijante x264, MP3 HR ton i 5.1 engleski
Ali je i oko 4x veći.

Kod:
https://mega.nz/#!NrQXEaLC!5NuWhn8kfNFpoR3iq7D2HF61xdhqOKOW4AH2ASMSrLU

_________________
"The camera is an instrument that teaches people how to see without a camera" - Dorothea Lang
slika


Povratak na vrh
  
 
 Naslov: Re: Sinkro crtići
PostPostano: 14 tra 2019 17:20 
Offline

Pridružen: 24 stu 2015 12:38
Postovi: 14
Lokacija: Zabreg
Veeeliko hvala za Grincha ! :plus:

Jel postoji možda My Little Pony sincan na hr?


Povratak na vrh
  
 
 Naslov: Re: Sinkro crtići
PostPostano: 15 tra 2019 19:00 
Offline
Avatar

Pridružen: 04 ožu 2015 14:28
Postovi: 638
Lokacija: ZG
slika

General
Complete name : \Moj.mali.Poni.Film.2017.HRsink.VODRip.XviD-RAKiJA.avi
Format : AVI
Format/Info : Audio Video Interleave
File size : 909 MiB
Duration : 1h 35mn
Overall bit rate : 1 335 Kbps

Video
ID : 0
Format : MPEG-4 Visual
Format profile : Advanced Simple@L5
Format settings, BVOP : 2
Format settings, QPel : No
Format settings, GMC : No warppoints
Format settings, Matrix : Default (H.263)
Codec ID : XVID
Codec ID/Hint : XviD
Duration : 1h 35mn
Bit rate : 1 199 Kbps
Width : 704 pixels
Height : 400 pixels
Display aspect ratio : 16:9
Frame rate : 25.000 fps
Color space : YUV
Chroma subsampling : 4:2:0
Bit depth : 8 bits
Scan type : Progressive
Compression mode : Lossy
Bits/(Pixel*Frame) : 0.170
Stream size : 816 MiB (90%)
Writing library : XviD 67

Audio
ID : 1
Format : AC-3
Format/Info : Audio Coding 3
Mode extension : CM (complete main)
Format settings, Endianness : Big
Codec ID : 2000
Duration : 1h 35mn
Bit rate mode : Constant
Bit rate : 128 Kbps
Channel(s) : 2 channels
Channel positions : Front: L R
Sampling rate : 48.0 KHz
Frame rate : 31.250 fps (1536 spf)
Compression mode : Lossy
Stream size : 87.1 MiB (10%)
Alignment : Aligned on interleaves
Interleave, duration : 64 ms (1.60 video frames)
Interleave, preload duratio : 192 ms



Kod:
https://mega.nz/#!rVhgRCCY!lD96WbIXPMwrrGpZlRGQuWi3CFj8Vt2OpQbdksN32Yg


.

_________________
"The camera is an instrument that teaches people how to see without a camera" - Dorothea Lang
slika


Povratak na vrh
  
 
 Naslov: Re: Sinkro crtići
PostPostano: 15 tra 2019 23:08 
Offline
Avatar

Pridružen: 29 kol 2013 15:52
Postovi: 48
Lokacija: Trogir
mpix je napisao:
Da ne prekodiravaš evo varijante x264, MP3 HR ton i 5.1 engleski
Ali je i oko 4x veći.

Kod:
https://mega.nz/#!NrQXEaLC!5NuWhn8kfNFpoR3iq7D2HF61xdhqOKOW4AH2ASMSrLU


Fala!!


Povratak na vrh
  
 
 Naslov: Re: Sinkro crtići
PostPostano: 27 tra 2019 12:38 
Offline

Pridružen: 15 lis 2018 16:56
Postovi: 22
Imate li možda nekog Spidermana na hrvatskom?

Inače, hvala puno na crtićima, ne mogu dovoljno puta reći...


Povratak na vrh
  
 
 [ 244 post(ov)a ]  Stranica Prethodna  1 ... 20, 21, 22, 23, 24, 25  Sljedeća

Vremenska zona: UTC + 01:00 [LJV]


Online

Trenutno korisnika: crawl i 0 gostiju.


Ne možeš započinjati nove teme.
Ne možeš odgovarati na postove.
Ne možeš uređivati svoje postove.
Ne možeš izbrisati svoje postove.
Ne možeš postati privitke.

Idi na:  
Powered by phpBB © 2000, 2002, 2005, 2007 phpBB Group
HR (CRO) by vaper club