Vaper club

e-cigarete forum
Zadnji put si ovdje bio: 20 kol 2018 05:21. Sada je: 20 kol 2018 05:21.

Vremenska zona: UTC + 01:00 [LJV]




 [ 188 post(ov)a ]  Stranica Prethodna  1 ... 14, 15, 16, 17, 18, 19  Sljedeća
Autor Poruka
 Naslov: Re: Sinkro crtići
PostPostano: 11 vel 2018 13:10 
Offline
Avatar

Pridružen: 04 ožu 2015 14:28
Postovi: 587
Lokacija: ZG
slika

Rip Info:
--------------------------------------------------------------------------------------------------
zanr..............: animirani
kanal.............: RTL Kockica, 2017.
broj epizoda......: 25
velicina..........: 200 MB /ep
video.............: MPEG-4@~ 1300 Kbps
audio.............: MP3@~128 Kbps
reza..............: 704 x 528 @ 25.000 fps
trajanje..........: 20mn /ep
format............: XviD
jezik.............: hrvatski
titlovi...........: ne
source............: DVB
ukupno 5Gb

Kod:
https://mega.nz/#!ZbhWnIaL!jm_9ULfdiuPCL345KraKhZOB9wYX6-t6AMagE95TD3U
https://mega.nz/#!MXASgTAI!-YBeCLoQg5dJT8LUaRt1EQ1QY6IB1Kyo5xmwGI930O4
https://mega.nz/#!wGZgFJrL!pfR6aZjOV2JFxQZlblfZvIA46gNGFN8Hxtku115GCa0

_________________
"The camera is an instrument that teaches people how to see without a camera" - Dorothea Lang
slika


Povratak na vrh
  
 
 Naslov: Re: Sinkro crtići
PostPostano: 12 vel 2018 12:23 
Offline
Avatar

Pridružen: 10 vel 2018 14:44
Postovi: 3
Hvala puno,ako imas jos neki scooby doo,bilo bi super :)
I Ferdinand ako ima
Hvala jos jednom


Povratak na vrh
  
 
 Naslov: Re: Sinkro crtići
PostPostano: 13 vel 2018 14:39 
Offline
Avatar

Pridružen: 04 ožu 2015 14:28
Postovi: 587
Lokacija: ZG
Ferdinand je još u kinima. Neće tako skoro.
Bum videl kaj ima još od Scoobija

_________________
"The camera is an instrument that teaches people how to see without a camera" - Dorothea Lang
slika


Povratak na vrh
  
 
 Naslov: Re: Sinkro crtići
PostPostano: 17 vel 2018 11:43 
Offline
Avatar

Pridružen: 04 ožu 2015 14:28
Postovi: 587
Lokacija: ZG
slika

General
Complete name : Scooby Doo and the Loch Ness Monster (2004).mp4
Format : MPEG-4
Format profile : Base Media / Version 2
Codec ID : mp42 (mp42/isom/avc1)
File size : 872 MiB
Duration : 1h 14mn
Overall bit rate mode : Variable
Overall bit rate : 1 636 Kbps
Encoded date : UTC 2015-02-25 18:44:16
Tagged date : UTC 2015-02-25 19:40:00
Writing application : HandBrake rev20121007 2014022799

Video
ID : 1
Format : AVC
Format/Info : Advanced Video Codec
Format profile : High@L4.1
Format settings, CABAC : Yes
Format settings, ReFrames : 4 frames
Codec ID : avc1
Codec ID/Info : Advanced Video Coding
Duration : 1h 14mn
Bit rate : 1 500 Kbps
Width : 1 280 pixels
Height : 720 pixels
Display aspect ratio : 16:9
Frame rate mode : Variable
Frame rate : 23.976 (23976/1000) fps
Minimum frame rate : 23.810 fps
Maximum frame rate : 24.390 fps
Color space : YUV
Chroma subsampling : 4:2:0
Bit depth : 8 bits
Scan type : Progressive
Bits/(Pixel*Frame) : 0.068
Stream size : 790 MiB (91%)

Audio
ID : 2
Format : AAC
Format/Info : Advanced Audio Codec
Format profile : LC
Codec ID : 40
Duration : 1h 14mn
Bit rate mode : Variable
Bit rate : 148 Kbps
Maximum bit rate : 170 Kbps
Channel(s) : 6 channels
Channel positions : Front: L C R, Side: L R, LFE
Sampling rate : 44.1 KHz
Frame rate : 43.066 fps (1024 spf)
Compression mode : Lossy
Stream size : 78.6 MiB (9%)
Title : Stereo
Language : Croatian
Encoded date : UTC 2015-02-25 18:44:16
Tagged date : UTC 2015-02-25 19:40:00

Menu
ID : 3
Codec ID : text
Duration : 1h 14mn
Encoded date : UTC 2015-02-25 18:44:16
Tagged date : UTC 2015-02-25 19:40:00
Menu For : 1
00:00:00.000 : Rocking the boat.
00:05:21.029 : Danger-prone.
00:14:05.012 : Nothing to be afraid of.
00:20:51.001 : Brothers Forever chase.
00:26:49.067 : Looking for trouble.
00:33:18.040 : Net loss.
00:37:01.054 : Brown Dog chase.
00:40:29.012 : Minisub monster hunt.
00:47:45.032 : Race to the surface.
00:52:42.037 : Come and Get It chase.
00:55:54.021 : Right on top of it.
01:02:39.009 : Double Nessie trouble.
01:07:36.014 : Unsolved mystery.
01:11:31.083 : End Credits.

Kod:
https://mega.nz/#!1ewVUYrL!dkmZat4s3yEjcd1Kvv2wil-02zemT14Ot8iIBhOH1kQ

_________________
"The camera is an instrument that teaches people how to see without a camera" - Dorothea Lang
slika


Povratak na vrh
  
 
 Naslov: Re: Sinkro crtići
PostPostano: 17 vel 2018 11:53 
Offline
Avatar

Pridružen: 04 ožu 2015 14:28
Postovi: 587
Lokacija: ZG
slika

General
Complete name : \Scooby Doo Pirates Ahoy (2006).mp4
Format : MPEG-4
Format profile : Base Media / Version 2
Codec ID : mp42 (mp42/isom/avc1)
File size : 814 MiB
Duration : 1h 10mn
Overall bit rate mode : Variable
Overall bit rate : 1 609 Kbps
Encoded date : UTC 2015-02-25 20:30:24
Tagged date : UTC 2015-02-25 21:25:51
Writing application : HandBrake rev3736 2011011599

Video
ID : 1
Format : AVC
Format/Info : Advanced Video Codec
Format profile : High@L4.1
Format settings, CABAC : Yes
Format settings, ReFrames : 4 frames
Codec ID : avc1
Codec ID/Info : Advanced Video Coding
Duration : 1h 10mn
Bit rate : 1 500 Kbps
Width : 1 280 pixels
Height : 720 pixels
Display aspect ratio : 16:9
Frame rate mode : Variable
Frame rate : 23.976 (23976/1000) fps
Minimum frame rate : 13.605 fps
Maximum frame rate : 24.390 fps
Color space : YUV
Chroma subsampling : 4:2:0
Bit depth : 8 bits
Scan type : Progressive
Bits/(Pixel*Frame) : 0.068
Stream size : 753 MiB (92%)

Audio
ID : 2
Format : AAC
Format/Info : Advanced Audio Codec
Format profile : LC
Codec ID : 40
Duration : 1h 10mn
Bit rate mode : Variable
Bit rate : 117 Kbps
Maximum bit rate : 138 Kbps
Channel(s) : 6 channels
Channel positions : Front: L C R, Side: L R, LFE
Sampling rate : 44.1 KHz
Frame rate : 43.066 fps (1024 spf)
Compression mode : Lossy
Stream size : 59.1 MiB (7%)
Title : Stereo
Language : Croatian

Kod:
https://mega.nz/#!EKBU2Soa!LHhSTg2qMxddrCjK2a3eKixkwPKzJr7tT1ZvWqbGXbo

_________________
"The camera is an instrument that teaches people how to see without a camera" - Dorothea Lang
slika


Povratak na vrh
  
 
 Naslov: Re: Sinkro crtići
PostPostano: 17 vel 2018 11:54 
Offline
Avatar

Pridružen: 04 ožu 2015 14:28
Postovi: 587
Lokacija: ZG
slika

General
Complete name : Strumpfovi-My.Smurfy.Valentine.1983.Hsink.PDTV.XviD-RAKiJA\Strumpfovi-My.Smurfy.Valentine.1983.Hsink.PDTV.XviD-RAKiJA.avi
Format : AVI
Format/Info : Audio Video Interleave
File size : 216 MiB
Duration : 23mn 3s
Overall bit rate : 1 307 Kbps

Video
ID : 0
Format : MPEG-4 Visual
Format profile : Advanced Simple@L5
Format settings, BVOP : 2
Format settings, QPel : No
Format settings, GMC : No warppoints
Format settings, Matrix : Default (H.263)
Codec ID : XVID
Codec ID/Hint : XviD
Duration : 23mn 3s
Bit rate : 915 Kbps
Width : 672 pixels
Height : 504 pixels
Display aspect ratio : 4:3
Frame rate : 25.000 fps
Color space : YUV
Chroma subsampling : 4:2:0
Bit depth : 8 bits
Scan type : Progressive
Compression mode : Lossy
Bits/(Pixel*Frame) : 0.108
Stream size : 151 MiB (70%)
Writing library : XviD 67

Audio
ID : 1
Format : AC-3
Format/Info : Audio Coding 3
Mode extension : CM (complete main)
Format settings, Endianness : Big
Codec ID : 2000
Duration : 23mn 3s
Bit rate mode : Constant
Bit rate : 384 Kbps
Channel(s) : 2 channels
Channel positions : Front: L R
Sampling rate : 48.0 KHz
Frame rate : 31.250 fps (1536 spf)
Compression mode : Lossy
Stream size : 63.3 MiB (29%)
Alignment : Aligned on interleaves
Interleave, duration : 64 ms (1.60 video frames)
Interleave, preload duratio : 192 ms

Kod:
https://mega.nz/#!4S4A2ABI!4d4LyIfMVzwbHlv1OjSDrey7hSecL1SDUMsi2S2mQIM

_________________
"The camera is an instrument that teaches people how to see without a camera" - Dorothea Lang
slika


Povratak na vrh
  
 
 Naslov: Re: Sinkro crtići
PostPostano: 18 vel 2018 00:00 
Offline
Avatar

Pridružen: 04 ožu 2015 14:28
Postovi: 587
Lokacija: ZG
slika

General
Complete name : \Mali.Bigfoot.2017.HRsink.VODRip.XviD-RAKiJA\Mali.Bigfoot.2017.HRsink.VODRip.XviD-RAKiJA.avi
Format : AVI
Format/Info : Audio Video Interleave
File size : 825 MiB
Duration : 1h 28mn
Overall bit rate : 1 309 Kbps

Video
ID : 0
Format : MPEG-4 Visual
Format profile : Advanced Simple@L5
Format settings, BVOP : 2
Format settings, QPel : No
Format settings, GMC : No warppoints
Format settings, Matrix : Default (H.263)
Codec ID : XVID
Codec ID/Hint : XviD
Duration : 1h 28mn
Bit rate : 1 173 Kbps
Width : 704 pixels
Height : 400 pixels
Display aspect ratio : 16:9
Frame rate : 25.000 fps
Color space : YUV
Chroma subsampling : 4:2:0
Bit depth : 8 bits
Scan type : Progressive
Compression mode : Lossy
Bits/(Pixel*Frame) : 0.167
Stream size : 739 MiB (90%)
Writing library : XviD 67

Audio
ID : 1
Format : AC-3
Format/Info : Audio Coding 3
Mode extension : CM (complete main)
Format settings, Endianness : Big
Codec ID : 2000
Duration : 1h 28mn
Bit rate mode : Constant
Bit rate : 128 Kbps
Channel(s) : 2 channels
Channel positions : Front: L R
Sampling rate : 48.0 KHz
Frame rate : 31.250 fps (1536 spf)
Compression mode : Lossy
Stream size : 80.7 MiB (10%)


Kod:
https://mega.nz/#!BSogEJyY!RwWfktGp5ol8ZtZIkcJ9Eb2-DSgOu2_nqWdnUoE83iQ

_________________
"The camera is an instrument that teaches people how to see without a camera" - Dorothea Lang
slika


Povratak na vrh
  
 
 Naslov: Re: Sinkro crtići
PostPostano: 24 vel 2018 18:29 
Offline
Avatar

Pridružen: 10 vel 2018 14:44
Postovi: 3
Imas možda zootopiu,ali na Hrvatskom,mislim da si stavio prije,ali bilo je na engleskom titl.
Hvala puno


Povratak na vrh
  
 
 Naslov: Re: Sinkro crtići
PostPostano: 24 vel 2018 23:18 
Offline
Avatar

Pridružen: 04 ožu 2015 14:28
Postovi: 587
Lokacija: ZG
imaš na strani 11.

_________________
"The camera is an instrument that teaches people how to see without a camera" - Dorothea Lang
slika


Povratak na vrh
  
 
 Naslov: Re: Sinkro crtići
PostPostano: 25 vel 2018 15:37 
Offline
Avatar

Pridružen: 04 ožu 2015 14:28
Postovi: 587
Lokacija: ZG
Miffy - Čija je ovo kuća.avi
Miffy - Gdje ćemo se igrati.avi
Miffy - Ja znam zbrajati.avi
Miffy - Mali anđeo.avi
Miffy - Miffy ide letjeti.avi
Miffy - Miffy je išla u školu.avi
Miffy - Miffy na biciklu.avi
Miffy - Miffy na snijegu.avi
Miffy - Miffy u bolnici.avi
Miffy - Miffyn san.avi
Miffy - Najbolji prijatelji su zakon.avi
Miffy - Naopako.avi
Miffy - Orkestar.avi
Miffy - Rođendan.avi
Miffy - Što je iste boje.avi
Miffy - Što mogu učiniti sam.avi
Miffy - Trepću-trepću.avi
Miffy - Trokuti i kvadarati, što mogu biti.avi
Miffy - Želim se voziti.avi

1.4Gb

Kod:
https://mega.nz/#!lHoAkAhK!wrFcXDPyqA1fJzn5c8qEaKwi9SbJzjUltpiQHqDnqF8

_________________
"The camera is an instrument that teaches people how to see without a camera" - Dorothea Lang
slika


Povratak na vrh
  
 
 [ 188 post(ov)a ]  Stranica Prethodna  1 ... 14, 15, 16, 17, 18, 19  Sljedeća

Vremenska zona: UTC + 01:00 [LJV]


Online

Trenutno korisnika: crawl i 1 gost.


Ne možeš započinjati nove teme.
Ne možeš odgovarati na postove.
Ne možeš uređivati svoje postove.
Ne možeš izbrisati svoje postove.
Ne možeš postati privitke.

Idi na:  
Powered by phpBB © 2000, 2002, 2005, 2007 phpBB Group
HR (CRO) by vaper club