Vaper club

e-cigarete forum
Zadnji put si ovdje bio: 20 sij 2018 13:03. Sada je: 20 sij 2018 13:03.

Vremenska zona: UTC + 01:00 [LJV]




 [ 155 post(ov)a ]  Stranica Prethodna  1 ... 12, 13, 14, 15, 16
Autor Poruka
 Naslov: Re: Sinkro crtići
PostPostano: 03 sij 2018 01:30 
Offline
Avatar

Pridružen: 04 ožu 2015 14:28
Postovi: 539
Lokacija: ZG
slika

1080p, 1.6Gb

Kod:
https://mega.nz/#!OlcXVa5b!GSNKcx78Bj2RUmYSbL2K_ElT2vDftyaxBG_2N4xgSI8

_________________
"The camera is an instrument that teaches people how to see without a camera" - Dorothea Lang
slika


Povratak na vrh
  
 
 Naslov: Re: Sinkro crtići
PostPostano: 10 sij 2018 19:19 
Offline
Avatar

Pridružen: 04 ožu 2015 14:28
Postovi: 539
Lokacija: ZG
slika

General
Complete name : Bambi.1942.720p.BluRay.x264-SiNNERS\Bambi.1942.720p.BluRay.x264-SiNNERS.mkv
Format : Matroska
Format version : Version 4 / Version 2
File size : 2.19 GiB
Duration : 1h 9mn
Overall bit rate : 4 478 Kbps
Encoded date : UTC 2014-12-12 13:53:00
Writing application : mkvmerge v7.2.0 ('On Every Street') 64bit built on Sep 13 2014 15:52:10
Writing library : libebml v1.3.0 + libmatroska v1.4.1

Video
ID : 1
Format : AVC
Format/Info : Advanced Video Codec
Format profile : High@L3.1
Format settings, CABAC : Yes
Format settings, ReFrames : 5 frames
Codec ID : V_MPEG4/ISO/AVC
Duration : 1h 9mn
Bit rate : 2 970 Kbps
Width : 960 pixels
Height : 720 pixels
Display aspect ratio : 4:3
Frame rate mode : Constant
Frame rate : 23.976 (24000/1001) fps
Color space : YUV
Chroma subsampling : 4:2:0
Bit depth : 8 bits
Scan type : Progressive
Bits/(Pixel*Frame) : 0.179
Stream size : 1.45 GiB (66%)
Language : English
Default : Yes
Forced : No

Audio
ID : 2
Format : DTS
Format/Info : Digital Theater Systems
Mode : 16
Format settings, Endianness : Big
Codec ID : A_DTS
Duration : 1h 9mn
Bit rate mode : Constant
Bit rate : 1 509 Kbps
Channel(s) : 6 channels
Channel positions : Front: L C R, Side: L R, LFE
Sampling rate : 48.0 KHz
Frame rate : 93.750 fps (512 spf)
Bit depth : 16 bits
Compression mode : Lossy
Stream size : 755 MiB (34%)
Default : Yes
Forced : No



Kod:
https://mega.nz/#!aw11BZKa!WycCNrcz7ffnW9sYAX2JAFA2YPQ0a1RxDtOmwhQkaV0

_________________
"The camera is an instrument that teaches people how to see without a camera" - Dorothea Lang
slika


Povratak na vrh
  
 
 Naslov: Re: Sinkro crtići
PostPostano: 10 sij 2018 19:24 
Offline
Avatar

Pridružen: 04 ožu 2015 14:28
Postovi: 539
Lokacija: ZG
slika

General
Complete name : Pinokio.1940.1080p.BluRay.x264.DTS.AAC.HRsink-FGT.mkv
Format : Matroska
Format version : Version 4 / Version 2
File size : 5.91 GiB
Duration : 1h 27mn
Overall bit rate : 9 637 Kbps
Movie name : Pinocchio.1940.1080p.BluRay.x264.DTS-FGT
Encoded date : UTC 2018-01-03 16:19:14
Writing application : mkvmerge v9.0.1 ('Obstacles') 64bit
Writing library : libebml v1.3.3 + libmatroska v1.4.4
Cover : Yes
Attachments : cover_land.jpg / small_cover.jpg / small_cover_land.jpg / cover.jpg

Video
ID : 1
Format : AVC
Format/Info : Advanced Video Codec
Format profile : High@L4.1
Format settings, CABAC : Yes
Format settings, ReFrames : 5 frames
Codec ID : V_MPEG4/ISO/AVC
Duration : 1h 27mn
Bit rate : 8 000 Kbps
Width : 1 452 pixels
Height : 1 080 pixels
Display aspect ratio : 4:3
Frame rate mode : Constant
Frame rate : 23.976 (24000/1001) fps
Color space : YUV
Chroma subsampling : 4:2:0
Bit depth : 8 bits
Scan type : Progressive
Bits/(Pixel*Frame) : 0.213
Stream size : 4.90 GiB (83%)
Language : English
Default : Yes
Forced : No

Audio #1
ID : 2
Format : AAC
Format/Info : Advanced Audio Codec
Format profile : LC
Codec ID : A_AAC
Duration : 1h 27mn
Bit rate : 125 Kbps
Channel(s) : 2 channels
Channel positions : Front: L R
Sampling rate : 48.0 KHz
Frame rate : 46.875 fps (1024 spf)
Compression mode : Lossy
Stream size : 78.7 MiB (1%)
Language : Croatian
Default : Yes
Forced : No

Audio #2
ID : 3
Format : DTS
Format/Info : Digital Theater Systems
Mode : 16
Format settings, Endianness : Big
Codec ID : A_DTS
Duration : 1h 27mn
Bit rate mode : Constant
Bit rate : 1 509 Kbps
Channel(s) : 6 channels
Channel positions : Front: L C R, Side: L R, LFE
Sampling rate : 48.0 KHz
Frame rate : 93.750 fps (512 spf)
Bit depth : 24 bits
Compression mode : Lossy
Stream size : 947 MiB (16%)
Language : English
Default : No
Forced : No

[/font]

Kod:
https://mega.nz/#!q0MBjbYL!gkT0mUrgtOzZgRte4hr-BfLQ3SdSd-8K55QUNUDW3wc

_________________
"The camera is an instrument that teaches people how to see without a camera" - Dorothea Lang
slika


Povratak na vrh
  
 
 Naslov: Re: Sinkro crtići
PostPostano: 10 sij 2018 19:31 
Offline
Avatar

Pridružen: 04 ožu 2015 14:28
Postovi: 539
Lokacija: ZG
slika

General
Complete name : Pepeljuga.1950.1080p.BluRay.X264.DTS.AAC5.1.MP3.HRsink-AMIABLE.mkv
Format : Matroska
Format version : Version 4 / Version 2
File size : 4.67 GiB
Duration : 1h 14mn
Overall bit rate : 8 977 Kbps
Encoded date : UTC 2018-01-08 20:56:36
Writing application : mkvmerge v9.0.1 ('Obstacles') 64bit
Writing library : libebml v1.3.3 + libmatroska v1.4.4

Video
ID : 1
Format : AVC
Format/Info : Advanced Video Codec
Format profile : High@L4.1
Format settings, CABAC : Yes
Format settings, ReFrames : 5 frames
Codec ID : V_MPEG4/ISO/AVC
Duration : 1h 14mn
Bit rate : 6 890 Kbps
Width : 1 456 pixels
Height : 1 080 pixels
Display aspect ratio : 4:3
Frame rate mode : Constant
Frame rate : 23.976 (24000/1001) fps
Color space : YUV
Chroma subsampling : 4:2:0
Bit depth : 8 bits
Scan type : Progressive
Bits/(Pixel*Frame) : 0.183
Stream size : 3.58 GiB (77%)
Language : English
Default : Yes
Forced : No

Audio #1
ID : 2
Format : AAC
Format/Info : Advanced Audio Codec
Format profile : LC
Codec ID : A_AAC
Duration : 1h 14mn
Bit rate : 446 Kbps
Channel(s) : 6 channels
Channel positions : Front: L C R, Side: L R, LFE
Sampling rate : 44.1 KHz
Frame rate : 43.066 fps (1024 spf)
Compression mode : Lossy
Stream size : 237 MiB (5%)
Language : Croatian
Default : Yes
Forced : No

Audio #2
ID : 3
Format : MPEG Audio
Format version : Version 1
Format profile : Layer 3
Codec ID : A_MPEG/L3
Codec ID/Hint : MP3
Duration : 1h 14mn
Bit rate mode : Constant
Bit rate : 128 Kbps
Channel(s) : 2 channels
Sampling rate : 48.0 KHz
Frame rate : 41.667 fps (1152 spf)
Compression mode : Lossy
Stream size : 68.2 MiB (1%)
Writing library : LAMELAME_MAJOR_VERSI
Language : Croatian
Default : No
Forced : No

Audio #3
ID : 4
Format : DTS
Format/Info : Digital Theater Systems
Mode : 16
Format settings, Endianness : Big
Codec ID : A_DTS
Duration : 1h 14mn
Bit rate mode : Constant
Bit rate : 1 509 Kbps
Channel(s) : 6 channels
Channel positions : Front: L C R, Side: L R, LFE
Sampling rate : 48.0 KHz
Frame rate : 93.750 fps (512 spf)
Bit depth : 24 bits
Compression mode : Lossy
Stream size : 804 MiB (17%)
Language : English
Default : No
Forced : No

Text #1
ID : 5
Format : UTF-8
Codec ID : S_TEXT/UTF8
Codec ID/Info : UTF-8 Plain Text
Duration : 1h 13mn
Bit rate : 49 bps
Count of elements : 967
Stream size : 26.9 KiB (0%)
Language : English
Default : No
Forced : No

Text #2
ID : 6
Format : UTF-8
Codec ID : S_TEXT/UTF8
Codec ID/Info : UTF-8 Plain Text
Duration : 1h 13mn
Bit rate : 56 bps
Count of elements : 1105
Stream size : 30.5 KiB (0%)
Title : Closed Captions
Language : English
Default : No
Forced : No

Menu
00:00:00.000 : en:00:00:00.000
00:01:23.166 : en:00:01:23.166
00:04:20.719 : en:00:04:20.719
00:07:37.415 : en:00:07:37.415
00:10:15.240 : en:00:10:15.240
00:13:29.142 : en:00:13:29.142
00:17:39.308 : en:00:17:39.308
00:22:07.826 : en:00:22:07.826
00:23:32.953 : en:00:23:32.953
00:26:05.731 : en:00:26:05.731
00:27:55.173 : en:00:27:55.173
00:31:00.150 : en:00:31:00.150
00:33:32.510 : en:00:33:32.510
00:36:49.040 : en:00:36:49.040
00:38:55.708 : en:00:38:55.708
00:42:02.103 : en:00:42:02.103
00:44:11.983 : en:00:44:11.983
00:48:23.109 : en:00:48:23.109
00:52:54.171 : en:00:52:54.171
00:56:57.122 : en:00:56:57.122
01:00:42.472 : en:01:00:42.472
01:04:11.097 : en:01:04:11.097
01:07:34.801 : en:01:07:34.801
01:13:05.715 : en:01:13:05.715


Kod:
https://mega.nz/#!2xsUVJ7Z!Nkjq3Gc6EThieU6BA9qulyaucu_MZPIXMk67oz_AFtQ

_________________
"The camera is an instrument that teaches people how to see without a camera" - Dorothea Lang
slika


Povratak na vrh
  
 
 Naslov: Re: Sinkro crtići
PostPostano: 10 sij 2018 19:37 
Offline
Avatar

Pridružen: 04 ožu 2015 14:28
Postovi: 539
Lokacija: ZG
slika

General
Complete name : Trnoruzica.1959.1080p.BluRay.DTS.MP3.HRsink.x264-HD1080.mkv
Format : Matroska
Format version : Version 4 / Version 2
File size : 4.44 GiB
Duration : 1h 15mn
Overall bit rate mode : Variable
Overall bit rate : 8 458 Kbps
Movie name : Sleeping.Beauty.1959.1080p.BluRay.DTS.x264-ESiR
Encoded date : UTC 2018-01-09 17:21:30
Writing application : mkvmerge v9.0.1 ('Obstacles') 64bit
Writing library : libebml v1.3.3 + libmatroska v1.4.4

Video
ID : 1
Format : AVC
Format/Info : Advanced Video Codec
Format profile : High@L4.1
Format settings, CABAC : Yes
Format settings, ReFrames : 5 frames
Codec ID : V_MPEG4/ISO/AVC
Duration : 1h 15mn
Bit rate : 6 817 Kbps
Width : 1 920 pixels
Height : 752 pixels
Display aspect ratio : 2.553
Frame rate mode : Constant
Frame rate : 23.976 fps
Color space : YUV
Chroma subsampling : 4:2:0
Bit depth : 8 bits
Scan type : Progressive
Bits/(Pixel*Frame) : 0.197
Stream size : 3.58 GiB (81%)
Language : English
Default : Yes
Forced : No

Audio #1
ID : 2
Format : MPEG Audio
Format version : Version 1
Format profile : Layer 3
Mode : Joint stereo
Mode extension : MS Stereo
Codec ID : A_MPEG/L3
Codec ID/Hint : MP3
Duration : 1h 15mn
Bit rate mode : Variable
Bit rate : 128 Kbps
Channel(s) : 2 channels
Sampling rate : 48.0 KHz
Frame rate : 41.667 fps (1152 spf)
Compression mode : Lossy
Stream size : 68.7 MiB (2%)
Writing library : LAME3.90.°
Language : Croatian
Default : Yes
Forced : No

Audio #2
ID : 3
Format : DTS
Format/Info : Digital Theater Systems
Mode : 16
Format settings, Endianness : Big
Codec ID : A_DTS
Duration : 1h 15mn
Bit rate mode : Constant
Bit rate : 1 509 Kbps
Channel(s) : 6 channels
Channel positions : Front: L C R, Side: L R, LFE
Sampling rate : 48.0 KHz
Frame rate : 93.750 fps (512 spf)
Bit depth : 24 bits
Compression mode : Lossy
Stream size : 811 MiB (18%)
Language : English
Default : No
Forced : No


Kod:
https://mega.nz/#!f4s1nIga!r6WIioShL09hFKY4qMnWbi0kbtmLQHa9DhivSM6PkPc

_________________
"The camera is an instrument that teaches people how to see without a camera" - Dorothea Lang
slika


Povratak na vrh
  
 
 [ 155 post(ov)a ]  Stranica Prethodna  1 ... 12, 13, 14, 15, 16

Vremenska zona: UTC + 01:00 [LJV]


Online

Trenutno korisnika: bot*, crawl i 0 gostiju.


Ne možeš započinjati nove teme.
Ne možeš odgovarati na postove.
Ne možeš uređivati svoje postove.
Ne možeš izbrisati svoje postove.
Ne možeš postati privitke.

Idi na:  
Powered by phpBB © 2000, 2002, 2005, 2007 phpBB Group
HR (CRO) by vaper club