Vaper club

e-cigarete forum
Zadnji put si ovdje bio: 24 tra 2018 03:21. Sada je: 24 tra 2018 03:21.

Vremenska zona: UTC + 01:00 [LJV]




 [ 171 post(ov)a ]  Stranica Prethodna  1 ... 12, 13, 14, 15, 16, 17, 18  Sljedeća
Autor Poruka
 Naslov: Re: Sinkro crtići
PostPostano: 03 stu 2017 23:05 
Offline
Avatar

Pridružen: 04 ožu 2015 14:28
Postovi: 568
Lokacija: ZG
slika

[FONT=Courier New]General
Complete name : Despicable.Me.3.2017.1080p.WEBRip.x264.DD5.1.dual.audio.hr.si-SHITBOX.mkv
Format : Matroska
Format version : Version 4 / Version 2
File size : 4.38 GiB
Duration : 1h 29mn
Overall bit rate : 6 992 Kbps
Movie name : Despicable.Me.3.2017.1080p.WEBRip.x264.AAC2.0-SHITBOX
Encoded date : UTC 2017-11-03 18:34:27
Writing application : mkvmerge v9.0.1 ('Obstacles' 64bit
Writing library : libebml v1.3.3 + libmatroska v1.4.4

Video
ID : 1
Format : AVC
Format/Info : Advanced Video Codec
Format profile : High@L4.1
Format settings, CABAC : Yes
Format settings, ReFrames : 4 frames
Codec ID : V_MPEG4/ISO/AVC
Duration : 1h 29mn
Bit rate : 5 898 Kbps
Width : 1 920 pixels
Height : 800 pixels
Display aspect ratio : 2.40:1
Frame rate mode : Constant
Frame rate : 30.000 fps
Color space : YUV
Chroma subsampling : 4:2:0
Bit depth : 8 bits
Scan type : Progressive
Bits/(Pixel*Frame) : 0.128
Stream size : 3.69 GiB (84%)
Title : Despicable.Me.3.2017.1080p.WEBRip.x264.AAC2.0-SHITBOX
Language : English
Default : Yes
Forced : No
Color range : Limited
Color primaries : BT.709
Transfer characteristics : BT.709
Matrix coefficients : BT.709

Audio #1
ID : 2
Format : AAC
Format/Info : Advanced Audio Codec
Format profile : LC
Codec ID : A_AAC
Duration : 1h 29mn
Bit rate : 552 Kbps
Channel(s) : 6 channels
Channel positions : Front: L C R, Side: L R, LFE
Sampling rate : 48.0 KHz
Frame rate : 46.875 fps (1024 spf)
Compression mode : Lossy
Stream size : 354 MiB (8%)
Language : Croatian
Default : Yes
Forced : No

Audio #2
ID : 3
Format : AAC
Format/Info : Advanced Audio Codec
Format profile : LC
Codec ID : A_AAC
Duration : 1h 29mn
Bit rate : 550 Kbps
Channel(s) : 6 channels
Channel positions : Front: L C R, Side: L R, LFE
Sampling rate : 48.0 KHz
Frame rate : 46.875 fps (1024 spf)
Compression mode : Lossy
Stream size : 353 MiB (8%)
Language : Slovenian
Default : No
Forced : No[/FONT]


Kod:
https://mega.nz/#!1OowjRoZ!Z0EuSWsc0AVuWLqlQRABju2vTIe_GHimnA-QiRtsdrU

_________________
"The camera is an instrument that teaches people how to see without a camera" - Dorothea Lang
slika


Povratak na vrh
  
 
 Naslov: Re: Sinkro crtići
PostPostano: 08 stu 2017 17:18 
Offline
Avatar

Pridružen: 26 pro 2016 18:44
Postovi: 97
Lokacija: Kumova slama
Hvala mpix


Povratak na vrh
  
 
 Naslov: Re: Sinkro crtići
PostPostano: 12 stu 2017 15:27 
Offline
Avatar

Pridružen: 04 ožu 2015 14:28
Postovi: 568
Lokacija: ZG
slika

General
Complete name : Cars.3.2017.720p.BluRay.x264-Gede\Cars.3.2017.720p.BluRay.x264-Gede.mkv
Format : Matroska
File size : 3.27 GiB
Duration : 1h 42mn
Overall bit rate : 4 578 Kbps
Movie name : Cars.3.2017.720p.BluRay.x264-Gede

Video
ID : 1
Format : AVC
Format/Info : Advanced Video Codec
Format profile : High@L3.1
Format settings, CABAC : Yes
Format settings, ReFrames : 6 frames
Codec ID : V_MPEG4/ISO/AVC
Duration : 1h 42mn
Bit rate : 3 936 Kbps
Width : 1 280 pixels
Height : 528 pixels
Display aspect ratio : 2.40:1

Audio
ID : 2
Format : AC-3
Format/Info : Audio Coding 3
Mode extension : CM (complete main)
Format settings, Endianness : Big
Codec ID : A_AC3
Duration : 1h 42mn
Bit rate mode : Constant
Bit rate : 640 Kbps
Channel(s) : 6 channels
Channel positions : Front: L C R, Side: L R, LFE
Sampling rate : 48.0 KHz
Frame rate : 31.250 fps (1536 spf)
Compression mode : Lossy
Stream size : 469 MiB (14%)
Default : Yes
Forced : No

Kod:
https://mega.nz/#!UX4UiKJL!p-HtE99X-gJ0jMKoNb7rnSVg6IV9UcvWsv_yIZosU4Y

_________________
"The camera is an instrument that teaches people how to see without a camera" - Dorothea Lang
slika


Povratak na vrh
  
 
 Naslov: Re: Sinkro crtići
PostPostano: 12 stu 2017 19:44 
Offline
Avatar

Pridružen: 04 ožu 2015 14:28
Postovi: 568
Lokacija: ZG
slika

General
Complete name : UZBUNA NA ZELENOM VRHU (2017)\Uzbuna na Zelenom Vrhu.mkv
Format : Matroska
Format version : Version 4 / Version 2
File size : 1.24 GiB
Duration : 1h 17mn
Overall bit rate : 2 291 Kbps

Video
ID : 1
Format : AVC
Format/Info : Advanced Video Codec
Format profile : Main@L3.1
Codec ID : V_MPEG4/ISO/AVC
Duration : 1h 17mn
Width : 1 280 pixels
Height : 720 pixels
Display aspect ratio : 16:9
Frame rate mode : Constant
Frame rate : 25.000 fps

Audio
ID : 2
Format : AAC
Format/Info : Advanced Audio Codec
Format profile : LC
Codec ID : A_AAC
Duration : 1h 17mn
Channel(s) : 6 channels


Kod:
https://mega.nz/#!xTRWhQ5a!iaurt9PLq4Z0JweP6MYDL_1XeQ8Stz_2Ru0AJltyao4

_________________
"The camera is an instrument that teaches people how to see without a camera" - Dorothea Lang
slika


Povratak na vrh
  
 
 Naslov: Re: Sinkro crtići
PostPostano: 22 stu 2017 23:29 
Offline
Avatar

Pridružen: 04 ožu 2015 14:28
Postovi: 568
Lokacija: ZG
slika


Godina Naziv filma Rezolucija

1949 - Fast and Furry-ous 640 X 480
1949 - Fast and Furryous 640 X 480
1952 - Operation Rabbit 640 X 480
1952 - Beep, Beep 640 X 480
1952 - Going! Going! Gosh! 640 X 480
1952 - Beep Beep 640 X 480
1952 - Going Going Gosh 640 X 480
1953 - Don't Give Up the Sheep 640 X 480
1953 - Zipping Along 640 X 480
1953 - Zipping Along 640 X 480
1954 - Stop! Look! And Hasten! 640 X 480
1954 - Sheep Ahoy 640 X 480
1954 - Stop! Look! And Hasten! 640 X 480
1955 - Ready, Set, Zoom! 640 X 480
1955 - Double Or Mutton 640 X 480
1955 - Guided Muscle 640 X 480
1955 - Ready.. Set.. Zoom! 640 X 480
1955 - Guided Muscle 640 X 480
1956 - Gee Whiz-z-z-z 640 X 480
1956 - There They Go-Go-Go! 640 X 480
1956 - To Hare is Human 640 X 480
1956 - Gee Whizzzz 640 X 480
1956 - There they go go go 640 X 480
1957 - Scrambled Aches 640 X 480
1957 - Steal Wool 640 X 480
1957 - Zoom and Bored 640 X 480
1957 - Scrambled Aches 640 X 480
1957 - Zoom and Bored 640 X 480
1957 - Whoa Be-Gone! 640 X 480
1958 - Whoa, Be-Gone! 640 X 480
1958 - Hook, Line and Stinker 640 X 480
1958 - Hip Hip-Hurry! 640 X 480
1958 - Hook, Line & Stinker 640 X 480
1958 - Hip Hip-Hurry 640 X 480
1959 - Hot-Rod and Reel! 640 X 480
1959 - Wild About Hurry 640 X 480
1959 - Hot-Rod and Reel 640 X 480
1959 - Wild about hurry 640 X 480
1960 - Fastest With The Mostest 640 X 480
1960 - Rabbit's Feat 640 X 480
1960 - Ready, Woolen and Able 640 X 480
1960 - Hopalong Casualty 640 X 480
1960 - Fastest with the Mostest 640 X 480
1960 - Hopalong Casualty 640 X 480
1961 - Zip 'N' Snort 640 X 480
1961 - Lickety-Splat 640 X 480
1961 - Compressed Hare 640 X 480
1961 - Beep Prepared 640 X 480
1961 - Zip 'N Snort 640 X 480
1961 - Lickety Splat 640 X 480
1961 - Beep Prepared 640 X 480
1962 - A Sheep In The Deep 640 X 480
1962 - Adventures of the Road Runner 640 X 480
1962 - Zoom at the Top 640 X 480
1962 - Zoom at the top 640 X 480
1963 - Woolen Under Where 640 X 480
1963 - Hare-Breadth Hurry 640 X 480
1963 - To Beep or Not to Beep 640 X 480
1963 - To Beep or not to Beep 640 X 480
1964 - War and Pieces 640 X 480
1964 - War and Pieces 640 X 480
1965 - Zip Zip Hooray 640 X 480
1965 - Roadrunner a Go-Go 640 X 480
1965 - The Wild Chase 640 X 480
1965 - Rushing Roulette 640 X 480
1965 - Run, Run, Sweet Road Runner 640 X 480
1965 - Tired and Feathered 640 X 480
1965 - Boulder Wham! 640 X 480
1965 - Just Plane Beep 640 X 480
1965 - Hairied and Hurried 640 X 480
1965 - Highway Runnery 640 X 480
1965 - Chaser on the Rocks 640 X 480
1965 - Zip Zip Hooray 640 X 480
1965 - Roadrunner A Go-Go 640 X 480
1965 - The Road Runner Show - Zoom at the Top 640 X 480
1965 - Rushing Roulette 640 X 480
1965 - Run, run, sweet Road Runner 640 X 480
1965 - Tired and Feathered 640 X 480
1965 - Boulder Wham 640 X 480
1965 - Just plane Beep 640 X 480
1965 - Hairied and Hurried 640 X 480
1965 - Highway Runnery 640 X 480
1965 - Chaser on the Rocks 640 X 480
1965 - The Wild Chase 640 X 480
1966 - Shot and Bothered 640 X 480
1966 - Out and Out Rout 640 X 480
1966 - The Solid Tin Coyote 640 X 480
1966 - Clippety Clobbered 640 X 480
1966 - Sugar and Spies 640 X 480
1966 - Shot and Bothered 640 X 480
1966 - Out And Out Rout 640 X 480
1966 - Sugar And Spies 640 X 480
1967 - The Road Runner Show - 640 X 480
1969 - Rabbit Stew and Rabbits Too! 640 X 480
1979 - Freeze Frame 640 X 480
1979 - Freeze Frame 640 X 480
1980 - Soup or Sonic 640 X 480
1980 - Soup Or Sonic 640 X 480
1994 - Chariots of Fur 640 X 480
1994 - Chariots of Fur 640 X 480
2000 - Little Go Beep 640 X 480
2003 - Whizzard of Ow 640 X 480

Kod:
https://mega.nz/#!ZrgiwA7R!B79TBO3PMS024rjlo8Y0EqkFFJEjhiBGxyaN4DGQjmg
https://mega.nz/#!UrYnWAYQ!kLrC0LeTShmTybmXR0NBINh97DJy-RvMhk9SI05cLGA
https://mega.nz/#!9mInWACY!dZ0JZCfe1iCBL1B_ANOhoFgyhLI8P0--C8OBfUWklAY
https://mega.nz/#!53B1UIhR!pL_95OntTS2dhral-u9WPHYU3PZHFypkwPa0PXXPR2c


6.3Gb

_________________
"The camera is an instrument that teaches people how to see without a camera" - Dorothea Lang
slika


Povratak na vrh
  
 
 Naslov: Re: Sinkro crtići
PostPostano: 16 pro 2017 23:21 
Offline
Avatar

Pridružen: 04 ožu 2015 14:28
Postovi: 568
Lokacija: ZG
slika

Rip Info:
--------------------------------------------------------------------------------------------------
zanr..............: animirani
kanal.............: RTL , 16.12.2017.
velicina..........: 199 MB
video.............: MPEG-4@~ 1220 Kbps
audio.............: MP3@~128 Kbps
reza..............: 704 x 400 @ 25.000 fps
trajanje..........: 20mn 31s
format............: XviD
jezik.............: hrvatski
titlovi...........: /
source............: DVB

Kod:
https://mega.nz/#!BXIzGJIZ!jIQE0tOjaC6q9MUarXNjNngUzhfn0A6s6FcpY_kOsaA

_________________
"The camera is an instrument that teaches people how to see without a camera" - Dorothea Lang
slika


Povratak na vrh
  
 
 Naslov: Re: Sinkro crtići
PostPostano: 28 pro 2017 23:11 
Offline
Avatar

Pridružen: 04 ožu 2015 14:28
Postovi: 568
Lokacija: ZG
slika

General : The Nut Job 2\The Nut Job 2.mkv
Format : Matroska at 8 574 kb/s
Length : 5.46 GiB for 1 h 31 min 13 s 343 ms

Video #0 : AVC at 7 066 kb/s
Aspect : 1920 x 1040 (1.846) at 23.976 fps

Audio #0 : DTS at 1 510 kb/s
Infos : 6 channels, 48.0 kHz


AUDIO: HRVATSKI


Kod:
https://mega.nz/#!Xt9kEBBS!Kw0Hx1h78ZeGsz9PEQJ45leGH7qals17gFgVkdIN_0s

_________________
"The camera is an instrument that teaches people how to see without a camera" - Dorothea Lang
slika


Povratak na vrh
  
 
 Naslov: Re: Sinkro crtići
PostPostano: 30 pro 2017 19:44 
Offline

Pridružen: 24 stu 2015 12:38
Postovi: 8
Lokacija: Zabreg
Pozdrav mpix !

Još jednom veeeeliko hvala za crtiće i ovaj topic..

Imaš li možda Tajni život kućnih ljubimaca s HR syncom?


Povratak na vrh
  
 
 Naslov: Re: Sinkro crtići
PostPostano: 02 sij 2018 21:52 
Offline
Avatar

Pridružen: 04 ožu 2015 14:28
Postovi: 568
Lokacija: ZG
slika

1080p, 1.3Gb
Kod:
https://mega.nz/#!Hw0mxZBZ!eanvgj_7mx6BGYh1CCX0gr7BLqO9Hiwa-OyoJOWCzyg

_________________
"The camera is an instrument that teaches people how to see without a camera" - Dorothea Lang
slika


Povratak na vrh
  
 
 Naslov: Re: Sinkro crtići
PostPostano: 03 sij 2018 00:59 
Offline
Avatar

Pridružen: 04 ožu 2015 14:28
Postovi: 568
Lokacija: ZG
slika

General
Complete name : Americano.2016.720p.BluRay.x264-Gede\Americano.2016.720p.BluRay.x264-Gede.mkv
Format : Matroska
Format version : Version 4 / Version 2
File size : 2.64 GiB
Duration : 1h 27mn
Overall bit rate : 4 301 Kbps
Encoded date : UTC 2018-01-01 17:14:53
Writing application : mkvmerge v6.3.0 ('You can't stop me!') built on Jun 28 2013 20:09:41
Writing library : libebml v1.3.0 + libmatroska v1.4.0

Video
ID : 1
Format : AVC
Format/Info : Advanced Video Codec
Format profile : High@L4
Format settings, CABAC : Yes
Format settings, ReFrames : 6 frames
Codec ID : V_MPEG4/ISO/AVC
Duration : 1h 27mn
Bit rate : 3 659 Kbps
Width : 1 280 pixels
Height : 720 pixels
Display aspect ratio : 16:9
Frame rate mode : Constant
Frame rate : 23.976 (24000/1001) fps
Original frame rate : 23.976 (23976/1000) fps
Color space : YUV
Chroma subsampling : 4:2:0
Bit depth : 8 bits
Scan type : Progressive
Bits/(Pixel*Frame) : 0.166
Stream size : 2.20 GiB (83%)

Audio
ID : 2
Format : AC-3
Format/Info : Audio Coding 3
Mode extension : CM (complete main)
Format settings, Endianness : Big
Codec ID : A_AC3
Duration : 1h 27mn
Bit rate mode : Constant
Bit rate : 640 Kbps
Channel(s) : 6 channels
Channel positions : Front: L C R, Side: L R, LFE
Sampling rate : 44.1 KHz
Frame rate : 28.711 fps (1536 spf)
Compression mode : Lossy
Stream size : 403 MiB (15%)
Language : Croatian
Default : Yes
Forced : No



Kod:
https://mega.nz/#!r5lVBCgB!UKCE8XywDD2qWPRxTPFYvrQ3BjXpJyWJCilhxO-M7rg

_________________
"The camera is an instrument that teaches people how to see without a camera" - Dorothea Lang
slika


Povratak na vrh
  
 
 [ 171 post(ov)a ]  Stranica Prethodna  1 ... 12, 13, 14, 15, 16, 17, 18  Sljedeća

Vremenska zona: UTC + 01:00 [LJV]


Online

Trenutno korisnika: crawl i 2 gostiju.


Ne možeš započinjati nove teme.
Ne možeš odgovarati na postove.
Ne možeš uređivati svoje postove.
Ne možeš izbrisati svoje postove.
Ne možeš postati privitke.

Idi na:  
Powered by phpBB © 2000, 2002, 2005, 2007 phpBB Group
HR (CRO) by vaper club