Vaper club

e-cigarete forum
Zadnji put si ovdje bio: 26 ruj 2017 04:09. Sada je: 26 ruj 2017 04:09.

Vremenska zona: UTC + 01:00 [LJV]




 [ 1 post ] 
Autor Poruka
 Naslov: Filmovi
PostPostano: 08 lis 2016 11:24 
Offline
Avatar

Pridružen: 04 ožu 2015 14:28
Postovi: 511
Lokacija: ZG
slika

Titlovi u videu.

General
Complete name : Houston.We.Have.a.Problem.2016.720p.HRSub.HDTV.AC3-ruzahr.mp4
Format : MPEG-4
Format profile : Base Media / Version 2
Codec ID : mp42 (mp42)
File size : 2.11 GiB
Duration : 1 h 23 min
Overall bit rate mode : Constant
Overall bit rate : 3 595 kb/s
Codirector : codirector
Production studio : studio
ContentType : Unknown Type

Video
ID : 1
Format : MPEG-4 Visual
Format settings, BVOP : Yes
Format settings, QPel : No
Format settings, GMC : No warppoints
Format settings, Matrix : Default (H.263)
Codec ID : 20
Duration : 1 h 23 min
Bit rate mode : Constant
Bit rate : 3 399 kb/s
Width : 1 280 pixels
Height : 720 pixels
Display aspect ratio : 16:9
Frame rate mode : Constant
Frame rate : 25.000 FPS
Color space : YUV
Bit depth : 8 bits
Scan type : Progressive
Compression mode : Lossy
Bits/(Pixel*Frame) : 0.148
Stream size : 1.99 GiB (95%)
Writing library : Intel(R) MPEG-4 encoder based on Intel(R) IPP 6.1 build 137.20[6.1.137.763]
Language : English

Audio
ID : 2
Format : AC-3
Format/Info : Audio Coding 3
Mode extension : CM (complete main)
Format settings, Endianness : Big
Codec ID : ac-3
Duration : 1 h 23 min
Bit rate mode : Constant
Bit rate : 192 kb/s
Channel(s) : 2 channels
Channel positions : Front: L R
Sampling rate : 48.0 kHz
Frame rate : 31.250 FPS (1536 spf)
Bit depth : 16 bits
Compression mode : Lossy
Stream size : 115 MiB (5%)
Title : Surround
Language : English
Default : Yes
Alternate group : 1

Kod:
https://mega.nz/#!VctQRSDI!c_3UsYQZcVzNJEN7heNbkVUWDou7udbFOGKupwxtSaI

_________________
"The camera is an instrument that teaches people how to see without a camera" - Dorothea Lang
slika


Povratak na vrh
  
 
 [ 1 post ] 

Vremenska zona: UTC + 01:00 [LJV]


Online

Trenutno korisnika: crawl i 0 gostiju.


Ne možeš započinjati nove teme.
Ne možeš odgovarati na postove.
Ne možeš uređivati svoje postove.
Ne možeš izbrisati svoje postove.
Ne možeš postati privitke.

Idi na:  
Powered by phpBB © 2000, 2002, 2005, 2007 phpBB Group
HR (CRO) by vaper club